↑↓Torrent.by
Поиск
Логин: Регистрация
Пароль: Восстановить пароль
Загрузка...

На Париж (2018) WEB-DL 1080p | iTunes

Скачать na-parizh-2018-web-dl-1080p-itunes.torrent
U Магнитная ссылка Размер: 3.27 GB Раздают: 344 Качают: 165 Добавлен: 2019-06-10 20:34:18
На Париж (2018) WEB-DL 1080p | iTunes

Название: На Париж
Год выпуска: 2018
Жанр:  История, приключения
Режиссер: Сергей Саркисов
В ролях: Дмитрий Певцов, Сергей Маковецкий, Рената Литвинова, Евгений Стычкин, Фёдор Добронравов, Максим Важов, Торнике Квитатиани, Игорь Золотовицкий, Кирилл Зайцев, Александр Рапопорт

О фильме: История советских офицеров, плечом к плечу прошедших войну и решивших отпраздновать Великую Победу в Париже. Друзья, выдержавшие страшный путь войны, доходят до самого Берлина и берут курс на новую жизнь - на любовь, захватывающие приключения и город мечты Париж.

Выпущено: Россия, Blitz Films
Продолжительность: 01:35:18
Язык: Русский | iTunes

Файл
Качество: WEB-DL 1080p
Контейнер: MKV
Видео: MPEG4 AVC Video, H264, 2.40:1, 1908x792, 23.976 fps, 4435 kbps
Аудио: Russian (AC3, 6 ch, 384 kbps, 16 bits, 48.0 KHz) - iTunes
Субтитры: Нет

Релиз:


[+] MediaInfo
General
Unique ID : 251411794681923595328616119993241879667 (0xBD24267EF9F195CDA8B3E402A132C473)
Complete name : To.Paris.2019.WEB-DL.1080p.ELEKTRI4KA.UNIONGANG.mkv
Format : Matroska
Format version : Version 2
File size : 3.27 GiB
Duration : 1 h 35 min
Overall bit rate : 4 917 kb/s
Movie name : To.Paris.2019.ELEKTRI4KA.UNIONGANG
Encoded date : UTC 2019-06-09 18:59:04
Writing application : mkvmerge v7.8.0 ('River Man') 32bit built on Apr 3 2015 12:11:22
Writing library : libebml v1.3.1 + libmatroska v1.4.2

Video
ID : 2
Format : AVC
Format/Info : Advanced Video Codec
Format profile : High@L4
Format settings : CABAC / 5 Ref Frames
Format settings, CABAC : Yes
Format settings, ReFrames : 5 frames
Codec ID : V_MPEG4/ISO/AVC
Duration : 1 h 35 min
Bit rate : 4 435 kb/s
Width : 1 908 pixels
Height : 792 pixels
Display aspect ratio : 2.40:1
Frame rate mode : Constant
Frame rate : 23.976 (24000/1001) FPS
Color space : YUV
Chroma subsampling : 4:2:0
Bit depth : 8 bits
Scan type : Progressive
Bits/(Pixel*Frame) : 0.122
Stream size : 2.95 GiB (90%)
Language : English
Default : Yes
Forced : No
Color range : Limited
Color primaries : BT.709
Transfer characteristics : BT.709
Matrix coefficients : BT.709

Audio
ID : 1
Format : AC-3
Format/Info : Audio Coding 3
Codec ID : A_AC3
Duration : 1 h 35 min
Bit rate mode : Constant
Bit rate : 384 kb/s
Channel(s) : 6 channels
Channel positions : Front: L C R, Side: L R, LFE
Sampling rate : 48.0 kHz
Frame rate : 31.250 FPS (1536 SPF)
Bit depth : 16 bits
Compression mode : Lossy
Stream size : 262 MiB (8%)
Language : Russian
Service kind : Complete Main
Default : Yes
Forced : No

Menu
00:00:00.000 : en:1
00:03:57.000 : en:2
00:15:08.000 : en:3
00:25:40.000 : en:4
00:36:36.000 : en:5
00:48:28.000 : en:6
01:01:02.000 : en:7
01:12:21.000 : en:8
01:24:12.000 : en:9
01:31:39.000 : en:10



Скриншоты:
[+] Всего файлов в раздаче - 1:
To.Paris.2019.WEB-DL.1080p.ELEKTRI4KA.UNIONGANG.mkv3.27 GB

Показать еще раздачи по запросу париж:
2019-06-10 U На Париж (2018) WEB-DLRip от Generalfilm | КПК | iTunes 362.12 MB ↑ 29 ↓ 11
2019-06-10 U На Париж (2018) WEB-DLRip-AVC от Files-x | iTunes 1.45 GB ↑ 195 ↓ 95
2019-06-10 U На Париж (2018) WEB-DLRip от GeneralFilm | iTunes 746.23 MB ↑ 170 ↓ 75
2019-06-10 U На Париж (2018) WEB-DLRip от MegaPeer | iTunes 1.46 GB ↑ 333 ↓ 168
2019-05-23 U Роз, это Париж / Rose, c'est Paris (2010) DVDRip | Sub 1.47 GB ↑ 58 ↓ 20
2018-08-18 U Париж. Город Zомби / The Night Eats the World / La nuit a dévoré le monde (2018) BDRip-AVC от OlLanDGroup | iTunes 1.55 GB ↑ 42 ↓ 16
2018-08-18 U Париж. Город Zомби / The Night Eats the World / La nuit a dévoré le monde (2018) BDRip-AVC от HELLYWOOD | iTunes 2.14 GB ↑ 162 ↓ 30

Отзывы
Зарегистрируйтесь чтобы добавить комментарий.
Обратная связь
Copyleft ©