↑↓Torrent.by
Поиск
Логин: Регистрация
Пароль: Восстановить пароль
Загрузка...

Образование / Booksmart (2019) WEB-DL 1080p | HDRezka Studio

Скачать obrazovanie-booksmart-2019-web-dl-1080p-hdrezka-studio.torrent
U Магнитная ссылка Размер: 4.75 GB Раздают: 39 Качают: 15 Добавлен: 2019-06-10 20:35:06
Образование / Booksmart (2019) WEB-DL 1080p | HDRezka Studio

Название: Образование
Оригинальное название: Booksmart
Год выпуска: 2019
Жанр: Комедия
Режиссер: Оливия Уайлд
В ролях: Кейтлин Девер, Скайлер Гизондо, Билли Лурд, Лиза Кудроу, Молли Гордон, Джейсон Судейкис, Бини Фелдштейн, Уилл Форте, Стефани Стайлз, Диана Сильверс

О фильме: Старшеклассницы Молли и Эми последние четыре года были поглощены учебой, настойчиво пытаясь заработать высокие отметки, чтобы поступить в престижные колледжи. В итоге Молли удается пробиться в Йель, а Эми получает желанное место в Колумбийском университете, но лучшие подруги не чувствуют себя счастливыми. Они осознают, что постоянное стремление быть прилежными ученицами лишило их типичных для школьников развлечений, поэтому решают как следует повеселиться в последнюю ночь перед выпускным вечером.

Страна: США
Студия: Annapurna Pictures, Gloria Sanchez Productions
Продолжительность: 01:42:21
Перевод: Профессиональный (многоголосый, закадровый) | HDRezka Studio

Файл
Качество: WEB-DL 1080p
Контейнер: MKV
Видео: MPEG-4 AVC, 5815 Кбит/с, 1920x1080
Аудио 1: Русский: AC3, 2 ch, 192 Кбит/с - HDRezka Studio
Аудио 2: Английский: E-AC3, 6 ch, 640 Кбит/с - Original
Субтитры: Английские


[+] MediaInfo
General
Unique ID                                : 293462113187731594825052206810200163934 (0xDCC6BF441E15C2F968C8ACB0AC5A465E)
Complete name                            : G:Booksmart.2019.WEB-DL.1080p.mkv
Format                                   : Matroska
Format version                           : Version 4 / Version 2
File size                                : 4.75 GiB
Duration                                 : 1 h 42 min
Overall bit rate mode                    : Variable
Overall bit rate                         : 6 648 kb/s
Movie name                               : CMRG
Encoded date                             : UTC 2019-05-31 13:25:13
Writing application                      : mkvmerge v20.0.0 ('I Am The Sun') 64-bit
Writing library                          : libebml v1.3.5 + libmatroska v1.4.8

Video
ID                                       : 1
Format                                   : AVC
Format/Info                              : Advanced Video Codec
Format profile                           : High@L4
Format settings                          : CABAC / 4 Ref Frames
Format settings, CABAC                   : Yes
Format settings, RefFrames               : 4 frames
Codec ID                                 : V_MPEG4/ISO/AVC
Duration                                 : 1 h 42 min
Bit rate mode                            : Variable
Bit rate                                 : 5 815 kb/s
Maximum bit rate                         : 20.0 Mb/s
Width                                    : 1 920 pixels
Height                                   : 1 080 pixels
Display aspect ratio                     : 16:9
Frame rate mode                          : Constant
Frame rate                               : 24.000 FPS
Color space                              : YUV
Chroma subsampling                       : 4:2:0
Bit depth                                : 8 bits
Scan type                                : Progressive
Bits/(Pixel*Frame)                       : 0.117
Stream size                              : 4.16 GiB (87%)
Writing library                          : x264 core 148 r2715 7e75228
Encoding settings                        : cabac=1 / ref=4 / deblock=1:0:0 / analyse=0x3:0x111 / me=umh / subme=10 / psy=1 / psy_rd=1.00:0.00 / mixed_ref=1 / me_range=120 / chroma_me=1 / trellis=2 / 8x8dct=1 / cqm=0 / deadzone=21,11 / fast_pskip=1 / chroma_qp_offset=-2 / threads=8 / lookahead_threads=2 / sliced_threads=0 / nr=0 / decimate=1 / interlaced=0 / bluray_compat=0 / stitchable=1 / constrained_intra=0 / bframes=16 / b_pyramid=2 / b_adapt=2 / b_bias=0 / direct=3 / weightb=1 / open_gop=0 / weightp=2 / keyint=240 / keyint_min=121 / scenecut=0 / intra_refresh=0 / rc_lookahead=240 / rc=crf / mbtree=1 / crf=16.0 / qcomp=0.50 / qpmin=6 / qpmax=51 / qpstep=4 / vbv_maxrate=20000 / vbv_bufsize=25000 / crf_max=0.0 / nal_hrd=vbr / filler=0 / ip_ratio=1.40 / aq=1:0.80
Language                                 : English
Default                                  : Yes
Forced                                   : No

Audio #1
ID                                       : 2
Format                                   : AC-3
Format/Info                              : Audio Coding 3
Codec ID                                 : A_AC3
Duration                                 : 1 h 42 min
Bit rate mode                            : Constant
Bit rate                                 : 192 kb/s
Channel(s)                               : 2 channels
Channel positions                        : Front: L R
Sampling rate                            : 48.0 kHz
Frame rate                               : 31.250 FPS (1536 SPF)
Bit depth                                : 16 bits
Compression mode                         : Lossy
Stream size                              : 141 MiB (3%)
Title                                    : MVO, HDRezka Studio
Language                                 : Russian
Service kind                             : Complete Main
Default                                  : Yes
Forced                                   : No

Audio #2
ID                                       : 3
Format                                   : E-AC-3
Format/Info                              : Enhanced Audio Coding 3
Codec ID                                 : A_EAC3
Duration                                 : 1 h 42 min
Bit rate mode                            : Constant
Bit rate                                 : 640 kb/s
Channel(s)                               : 6 channels
Channel positions                        : Front: L C R, Side: L R, LFE
Sampling rate                            : 48.0 kHz
Frame rate                               : 187.500 FPS (256 SPF)
Compression mode                         : Lossy
Stream size                              : 469 MiB (10%)
Language                                 : English
Service kind                             : Complete Main
Default                                  : No
Forced                                   : No

Text
ID                                       : 4
Format                                   : UTF-8
Codec ID                                 : S_TEXT/UTF8
Codec ID/Info                            : UTF-8 Plain Text
Duration                                 : 1 h 35 min
Bit rate                                 : 87 b/s
Count of elements                        : 1869
Stream size                              : 61.5 KiB (0%)
Language                                 : English
Default                                  : No
Forced                                   : No



Скриншоты:
[+] Всего файлов в раздаче - 1:
Booksmart.2019.WEB-DL.1080p.mkv4.75 GB

Похожие раздачи по запросу - образование:
2019-06-01 U Образование / Booksmart (2019) WEB-DLRip от MegaPeer | HDRezka Studio 1.46 GB ↑ 102 ↓ 15
2018-05-20 U Сексуальное образование / Sex(Ed) the Movie (2014) SATRip | P 1.15 GB ↑ 39 ↓ 19
2018-05-15 U Дьявольское образование / Diabelska edukacja (1995) HDTVRip | P2 1К492.79 MB ↑ 115 ↓ 22

Отзывы
Зарегистрируйтесь чтобы добавить комментарий.
Обратная связь
Copyleft ©