↑↓Torrent.by
Поиск
Логин: Регистрация
Пароль: Восстановить пароль
Загрузка...

Игры разумов / The Professor and the Madman (2019) WEB-DL-HEVC 1080p | iTunes

Скачать igry-razumov-the-professor-and-madman-2019-web-dl-hevc-1080p-itunes.torrent
U Магнитная ссылка Размер: 4.21 GB Раздают: 74 Качают: 23 Добавлен: 2019-06-11 08:24:43
Игры разумов / The Professor and the Madman (2019) WEB-DL-HEVC 1080p | iTunes

Название: Игры разумов
Оригинальное название: The Professor and the Madman
Год выхода: 2019
Жанр: Триллер, драма, детектив, биография

Режиссер: Фарад Сафиниа

В ролях: Мэл Гибсон, Шон Пенн, Натали Дормер, Джереми Ирвин, Дженнифер Или, Стив Кугэн, Стивен Диллэйн, Эдди Марсан, Йоан Гриффит, Лоуренс Фокс

О фильме: Англия середины XIX века. Оксфордский профессор Джеймс Мюррей работает над первым в истории словарем английского языка, а его главным соратником становится заключенный психиатрической клиники для особо опасных преступников — доктор Уильям Майнор. Гений Майнор или сумасшедший, хитроумный преступник, ведущий дерзкую игру, чтобы вырваться на свободу, или одержимый ученый? И кто тогда Мюррей: верный друг, жертва манипуляции или организатор сговора?

Страна: Ирландия
Продолжительность: 02:04:41
Перевод:Профессиональный (полное дублирование) | iTunes

Файл
Кодек: H.265
Качество: WEB-DL-HEVC 1080p | Amazon
Видео: HEVC, 1920x800 (2.40:1), 23.976 fps, 3 804 kb/s
Аудио 1: AC-3, 48.0 kHz, 6 ch, 384 kb/s | RUS
Аудио 2: AC-3, 48.0 kHz, 6 ch, 640 kb/s | ENG
Субтитры: Английские (полные, SDH)

Семпл


[+] MI
General
Unique ID                                : 211398090488783718134555433133924453264 (0x9F09CA90664C7D53A2FED57E46248B90)
Complete name                            : The.Professor.and.the.Madman.2019.1080p.AMZN.WEB-DL.HEVC.mkv
Format                                   : Matroska
Format version                           : Version 4
File size                                : 4.21 GiB
Duration                                 : 2 h 4 min
Overall bit rate                         : 4 830 kb/s
Encoded date                             : UTC 2019-06-10 15:25:59
Writing application                      : mkvmerge v8.3.0 ('Over the Horizon') 64bit
Writing library                          : libebml v1.3.1 + libmatroska v1.4.2

Video
ID                                       : 1
Format                                   : HEVC
Format/Info                              : High Efficiency Video Coding
Format profile                           : Main 10@L4.1@High
Codec ID                                 : V_MPEGH/ISO/HEVC
Duration                                 : 2 h 4 min
Bit rate                                 : 3 804 kb/s
Width                                    : 1 920 pixels
Height                                   : 800 pixels
Display aspect ratio                     : 2.40:1
Frame rate mode                          : Constant
Frame rate                               : 23.976 (24000/1001) FPS
Color space                              : YUV
Chroma subsampling                       : 4:2:0
Bit depth                                : 10 bits
Bits/(Pixel*Frame)                       : 0.103
Stream size                              : 3.31 GiB (79%)
Language                                 : English
Default                                  : Yes
Forced                                   : No
Color range                              : Limited
Color primaries                          : BT.709
Transfer characteristics                 : BT.709
Matrix coefficients                      : BT.709

Audio #1
ID                                       : 2
Format                                   : AC-3
Format/Info                              : Audio Coding 3
Commercial name                          : Dolby Digital
Codec ID                                 : A_AC3
Duration                                 : 2 h 4 min
Bit rate mode                            : Constant
Bit rate                                 : 384 kb/s
Channel(s)                               : 6 channels
Channel layout                           : L R C LFE Ls Rs
Sampling rate                            : 48.0 kHz
Frame rate                               : 31.250 FPS (1536 SPF)
Bit depth                                : 16 bits
Compression mode                         : Lossy
Stream size                              : 342 MiB (8%)
Language                                 : Russian
Default                                  : Yes
Forced                                   : No

Audio #2
ID                                       : 3
Format                                   : E-AC-3
Format/Info                              : Enhanced AC-3
Commercial name                          : Dolby Digital Plus
Codec ID                                 : A_EAC3
Duration                                 : 2 h 4 min
Bit rate mode                            : Constant
Bit rate                                 : 640 kb/s
Channel(s)                               : 6 channels
Channel layout                           : L R C LFE Ls Rs
Sampling rate                            : 48.0 kHz
Frame rate                               : 31.250 FPS (1536 SPF)
Compression mode                         : Lossy
Stream size                              : 571 MiB (13%)
Language                                 : English
Default                                  : No
Forced                                   : No

Text #1
ID                                       : 4
Format                                   : UTF-8
Codec ID                                 : S_TEXT/UTF8
Codec ID/Info                            : UTF-8 Plain Text
Duration                                 : 1 h 56 min
Bit rate                                 : 65 b/s
Count of elements                        : 1595
Stream size                              : 56.1 KiB (0%)
Language                                 : English
Default                                  : No
Forced                                   : No

Text #2
ID                                       : 5
Format                                   : UTF-8
Codec ID                                 : S_TEXT/UTF8
Codec ID/Info                            : UTF-8 Plain Text
Duration                                 : 1 h 57 min
Bit rate                                 : 68 b/s
Count of elements                        : 1680
Stream size                              : 58.6 KiB (0%)
Title                                    : SDH
Language                                 : English
Default                                  : No
Forced                                   : No



Скриншоты:
[+] Всего файлов в раздаче - 1:
The.Professor.and.the.Madman.2019.1080p.AMZN.WEB-DL.HEVC.mkv4.21 GB

Показать еще раздачи по запросу игры:
2019-06-16 U Игры разумов / The Professor and the Madman (2019) BDRip от Twister & ExKinoRay | iTunes 2.13 GB ↑ 89 ↓ 18
2019-06-13 U Игры разумов / The Professor and the Madman (2019) BDRemux 1080p от селезень | D, P | iTunes 27.01 GB ↑ 64 ↓ 20
2019-06-13 U Игры разумов / The Professor and the Madman (2019) BDRip от MegaPeer | iTunes 2.12 GB ↑ 65 ↓ 10
2019-06-13 U Игры разумов / The Professor and the Madman (2019) BDRip 1080p от селезень | D, P | iTunes 9.77 GB ↑ 94 ↓ 32
2019-06-12 U Игры разумов / The Professor and the Madman (2019) BDRip от MegaPeer | iTunes 1.46 GB ↑ 101 ↓ 34
2019-06-11 U Игры разумов / The Professor and the Madman (2019) WEB-DLRip-AVC | iTunes 1.47 GB ↑ 61 ↓ 17
2019-06-11 U Игры разумов / The Professor and the Madman (2019) WEB-DLRip | iTunes 793.91 MB ↑ 27 ↓ 12

Отзывы
Зарегистрируйтесь чтобы добавить комментарий.
Обратная связь
Copyleft ©