↑↓Torrent.by
Поиск
Логин: Регистрация
Пароль: Восстановить пароль
Загрузка...

Отель Мумбаи: Противостояние / Hotel Mumbai (2018) BDRip 1080p | HDrezka Studio

Скачать otel-mumbai-protivostoyanie-hotel-2018-bdrip-1080p-hdrezka-studio.torrent
U Магнитная ссылка Размер: 19.57 GB Раздают: 75 Качают: 133 Добавлен: 2019-06-11 08:24:49
Отель Мумбаи: Противостояние / Hotel Mumbai (2018) BDRip 1080p | HDrezka Studio

Название: Отель Мумбаи: Противостояние
Оригинальное название: Hotel Mumbai
Год выхода: 2018
Жанр: Триллер, драма, история
Режиссер: Энтони Марас
В ролях: Арми Хаммер, Джейсон Айзекс, Назанин Бониади, Дев Патель, Наташа Лю Бордиццо, Амандип Сингх, Сухаил Найар, Манодж Мера, Динеш Кумар, Амриптал Сингх

О фильме:
Индия. Мумбаи. Роскошный отель «Тадж-Махал Палас» — гарантия безопасности. И каждый гость здесь — бог. Но однажды мир красоты, роскоши и комфорта рушится… Три дня противостояния смерти, три дня борьбы за выживание…

 
Страна: США, Австралия
Студия: A Hamilton and Electric Pictures Production, American Entertainment Investors, Cyan Films
Продолжительность: 02:02:53
Перевод: Профессиональный (многоголосый, закадровый) | HDrezka Studio

Файл
Качество: BDRip 1080p | HDrezka Studio
Видео: AVC/H.264, 1920x804, ~21,1 Мbps, 23.976 fps
Звук:
Аудио 1: AC3, 2 ch, 192 Kbps - Русский
Аудио 2: DTS, 6 ch, 1509 Kbps - Английский
Субтитры: Русские (форс), английские (полные, SDH, хардсаб на неанглийскую речь)


[+] Mediainfo
Общее
Уникальный идентификатор                 : 159788989427641971479746830042805017676 (0x78363D6D82022623783D69E986F79C4C)
Полное имя                               : Hotel Mumbai.2018.BDRip.1080p.mkv
Формат                                   : Matroska
Версия формата                           : Version 4
Размер файла                             : 19,6 Гбайт
Продолжительность                        : 2 ч. 2 м.
Общий поток                              : 22,8 Мбит/сек
Название фильма                          : Hotel Mumbai.2018.BDRip.1080p
Дата кодирования                         : UTC 2019-06-10 18:39:06
Программа кодирования                    : mkvmerge v23.0.0 ('The Bride Said No') 64-bit
Библиотека кодирования                   : libebml v1.3.6 + libmatroska v1.4.9

Видео
Идентификатор                            : 1
Формат                                   : AVC
Формат/Информация                        : Advanced Video Codec
Профиль формата                          : High@L4.1
Настройки формата                        : CABAC / 5 Ref Frames
Параметр CABAC формата                   : Да
Параметр RefFrames формата               : 5 кадров
Идентификатор кодека                     : V_MPEG4/ISO/AVC
Продолжительность                        : 2 ч. 2 м.
Битрейт                                  : 21,1 Мбит/сек
Ширина                                   : 1920 пикселей
Высота                                   : 804 пикселя
Соотношение сторон                       : 2,40:1
Режим частоты кадров                     : Постоянный
Частота кадров                           : 23,976 (24000/1001) кадра/сек
Цветовое пространство                    : YUV
Субдискретизация насыщенности            : 4:2:0
Битовая глубина                          : 8 бит
Тип развёртки                            : Прогрессивная
Бит/(Пиксели*Кадры)                      : 0.570
Размер потока                            : 18,1 Гбайт (93%)
Заголовок                                : AMIABLE
Библиотека кодирования                   : x264 core 157 r2970 5493be8
Настройки программы                      : cabac=1 / ref=5 / deblock=1:-3:-3 / analyse=0x3:0x133 / me=umh / subme=10 / psy=1 / psy_rd=0.90:0.00 / mixed_ref=1 / me_range=48 / chroma_me=1 / trellis=2 / 8x8dct=1 / cqm=0 / deadzone=21,11 / fast_pskip=0 / chroma_qp_offset=-2 / threads=25 / lookahead_threads=6 / sliced_threads=0 / nr=0 / decimate=0 / interlaced=0 / bluray_compat=0 / constrained_intra=0 / bframes=10 / b_pyramid=2 / b_adapt=2 / b_bias=0 / direct=3 / weightb=1 / open_gop=0 / weightp=2 / keyint=240 / keyint_min=24 / scenecut=40 / intra_refresh=0 / rc=crf / mbtree=0 / crf=17.0 / qcomp=0.60 / qpmin=0 / qpmax=69 / qpstep=4 / ip_ratio=1.20 / pb_ratio=1.10 / aq=3:0.70
Язык                                     : English
Default                                  : Да
Forced                                   : Нет

Аудио #1
Идентификатор                            : 2
Формат                                   : AC-3
Формат/Информация                        : Audio Coding 3
Коммерческое название                    : Dolby Digital
Идентификатор кодека                     : A_AC3
Продолжительность                        : 2 ч. 2 м.
Вид битрейта                             : Постоянный
Битрейт                                  : 192 Кбит/сек
Каналы                                   : 2 канала
ChannelLayout                            : L R
Частота                                  : 48,0 КГц
Частота кадров                           : 31,250 кадров/сек (1536 SPF)
Битовая глубина                          : 16 бит
Метод сжатия                             : С потерями
Размер потока                            : 169 Мбайт (1%)
Заголовок                                : MVO | HDRezka Studio
Язык                                     : Russian
ServiceKind                              : Complete Main
Default                                  : Да
Forced                                   : Нет

Аудио #2
Идентификатор                            : 3
Формат                                   : DTS
Формат/Информация                        : Digital Theater Systems
Идентификатор кодека                     : A_DTS
Продолжительность                        : 2 ч. 2 м.
Вид битрейта                             : Постоянный
Битрейт                                  : 1509 Кбит/сек
Каналы                                   : 6 каналов
ChannelLayout                            : C L R Ls Rs LFE
Частота                                  : 48,0 КГц
Частота кадров                           : 93,750 кадра/сек (512 SPF)
Битовая глубина                          : 24 бит
Метод сжатия                             : С потерями
Размер потока                            : 1,30 Гбайт (7%)
Язык                                     : English
Default                                  : Нет
Forced                                   : Нет

Текст #1
Идентификатор                            : 4
Формат                                   : UTF-8
Идентификатор кодека                     : S_TEXT/UTF8
Идентификатор кодека/Информация          : UTF-8 Plain Text
Продолжительность                        : 1 ч. 52 м.
Битрейт                                  : 3 бит/сек
ElementCount                             : 39
Размер потока                            : 2,66 Кбайт (0%)
Заголовок                                : Forced
Язык                                     : Russian
Default                                  : Да
Forced                                   : Нет

Текст #2
Идентификатор                            : 5
Формат                                   : UTF-8
Идентификатор кодека                     : S_TEXT/UTF8
Идентификатор кодека/Информация          : UTF-8 Plain Text
Продолжительность                        : 1 ч. 52 м.
Битрейт                                  : 33 бит/сек
ElementCount                             : 915
Размер потока                            : 27,9 Кбайт (0%)
Язык                                     : English
Default                                  : Нет
Forced                                   : Нет

Текст #3
Идентификатор                            : 6
Формат                                   : UTF-8
Идентификатор кодека                     : S_TEXT/UTF8
Идентификатор кодека/Информация          : UTF-8 Plain Text
Продолжительность                        : 1 ч. 55 м.
Битрейт                                  : 39 бит/сек
ElementCount                             : 1124
Размер потока                            : 33,0 Кбайт (0%)
Заголовок                                : SDH
Язык                                     : English
Default                                  : Нет
Forced                                   : Нет

Меню
00:00:00.000                             : :Chapter 01
00:06:38.481                             : :Chapter 02
00:15:51.742                             : :Chapter 03
00:24:23.420                             : :Chapter 04
00:36:02.869                             : :Chapter 05
00:48:47.341                             : :Chapter 06
01:00:39.177                             : :Chapter 07
01:15:30.568                             : :Chapter 08
01:27:51.183                             : :Chapter 09
01:37:14.579                             : :Chapter 10
01:46:32.553                             : :Chapter 11
01:55:33.635                             : :Chapter 12  



Скриншоты:
[+] Всего файлов в раздаче - 1:
Hotel Mumbai.2018.BDRip.1080p.mkv19.57 GB

Показать еще раздачи по запросу отель:
2019-06-16 U Отель Мумбаи: Противостояние / Hotel Mumbai (2018) BDRip от Twister & ExKinoRay | iTunes 2.13 GB ↑ 24 ↓ 16
2019-06-15 U Отель Мумбаи: Противостояние / Hotel Mumbai (2018) BDRip 720p от k.e.n & MegaPeer | D, P | iTunes 5.35 GB ↑ 200 ↓ 65
2019-06-14 U Отель Мумбаи: Противостояние / Hotel Mumbai (2018) HDRip от Scarabey | iTunes 1.45 GB ↑ 150 ↓ 51
2019-06-14 U Отель Мумбаи: Противостояние / Hotel Mumbai (2018) BDRip-AVC от ExKinoRay | iTunes 743.41 MB ↑ 60 ↓ 11
2019-06-13 U Отель Мумбаи: Противостояние / Hotel Mumbai (2018) BDRip-AVC от OlLanDGroup | D, P | iTunes 2.03 GB ↑ 43 ↓ 25
2019-06-13 U Отель Мумбаи: Противостояние / Hotel Mumbai (2018) HDRip от Scarabey | iTunes 743.47 MB ↑ 79 ↓ 18
2019-06-13 U Отель Мумбаи: Противостояние / Hotel Mumbai (2018) BDRip 720p от селезень | D, P | iTunes 5.97 GB ↑ 108 ↓ 80

Отзывы
Зарегистрируйтесь чтобы добавить комментарий.
Обратная связь
Copyleft ©