↑↓Torrent.by
Поиск
Логин: Регистрация
Пароль: Восстановить пароль
Загрузка...

Мои парни - животные / Unleashed (2017) WEB-DL 1080p | D

Скачать moi-parni-zhivotnye-unleashed-2017-web-dl-1080p-d.torrent
U Магнитная ссылка Размер: 3.92 GB Раздают: 39 Качают: 15 Добавлен: 2019-06-11 08:24:53
Мои парни - животные / Unleashed (2017) WEB-DL 1080p | D

Название: Мои парни - животные
Оригинальное название: Unleashed
Год выхода: 2017
Жанр: Комедия
Режиссер: Финн Тейлор
В ролях: Шон Эстин, Джастин Чатвин, Стив Хоуи, Кейт Микуччи, Хана Мэй Ли, Иллиана Даглас, Ванесса Росс, Джош Бренер, Кэти Гарвер, Скотт Коффи

О фильме:
Однажды пёс и кот главной героини Эммы превращаются в двух идеальных парней. Сначала девушка испытывает шок, но потом с помощью своих преобразившихся друзей она начинает по-другому воспринимать мир и окружающих её людей, учится снова доверять людям, ходить на свидания и, в конечном итоге, любить себя.

Страна: США
Студия: Braveart Films
Продолжительность: 01:33:55
Перевод: Дублированный | Мосфильм-Мастер

Файл
Кодек: AVC
Качество: WEB-DL 1080p | Unleashed.2017.1080p.WEB-DL.DD5.1.H.264-FGT
Видео: MPEG-4 AVC, 5208 Kбит/с, 1912x1072, 23.976 кадр/с
Звук: ► Без Рекламы !
Аудио #1: Русский (АС3, 6ch, 384 Кбит/с, 48.0 KHz) Профессиональный (дублированный) Мосфильм-Мастер
Аудио #2: Английский (АС3, 6ch, 384 Кбит/с, 48.0 KHz)
Субтитры: английские (*srt)
Трейлер




[+] MediaInfo
Источник: Unleashed.2017.1080p.WEB-DL.DD5.1.H.264-FGT
General
Unique ID                      : 239922669328275889043810060809078538726 (0xB47F6CE1BFE0C138B7309EBD3E0381E6)
Complete name                  : Unleashed.2017.WEB-DL.1080p.mkv
Format                         : Matroska
Format version                 : Version 4
File size                      : 3.92 GiB
Duration                       : 1 h 33 min
Overall bit rate               : 5 979 kb/s
Encoded date                   : UTC 2019-06-10 13:15:31
Writing application            : mkvmerge v7.1.0 ('Good Love') 64bit built on Jul 27 2014 13:06:55
Writing library                : libebml v1.3.0 + libmatroska v1.4.1

Video
ID                             : 1
Format                         : AVC
Format/Info                    : Advanced Video Codec
Format profile                 : High@L4
Format settings                : CABAC / 4 Ref Frames
Format settings, CABAC         : Yes
Format settings, Reference fra : 4 frames
Codec ID                       : V_MPEG4/ISO/AVC
Duration                       : 1 h 33 min
Bit rate                       : 5 208 kb/s
Width                          : 1 912 pixels
Height                         : 1 072 pixels
Display aspect ratio           : 16:9
Frame rate mode                : Constant
Frame rate                     : 23.976 (24000/1001) FPS
Color space                    : YUV
Chroma subsampling             : 4:2:0
Bit depth                      : 8 bits
Scan type                      : Progressive
Bits/(Pixel*Frame)             : 0.106
Stream size                    : 3.42 GiB (87%)
Language                       : English
Default                        : Yes
Forced                         : No
Color range                    : Limited
Color primaries                : BT.709
Transfer characteristics       : BT.709
Matrix coefficients            : BT.709

Audio #1
ID                             : 2
Format                         : AC-3
Format/Info                    : Audio Coding 3
Commercial name                : Dolby Digital
Codec ID                       : A_AC3
Duration                       : 1 h 33 min
Bit rate mode                  : Constant
Bit rate                       : 384 kb/s
Channel(s)                     : 6 channels
Channel layout                 : L R C LFE Ls Rs
Sampling rate                  : 48.0 kHz
Frame rate                     : 31.250 FPS (1536 SPF)
Bit depth                      : 16 bits
Compression mode               : Lossy
Stream size                    : 258 MiB (6%)
Language                       : Russian
Service kind                   : Complete Main
Default                        : Yes
Forced                         : No

Audio #2
ID                             : 3
Format                         : AC-3
Format/Info                    : Audio Coding 3
Commercial name                : Dolby Digital
Codec ID                       : A_AC3
Duration                       : 1 h 33 min
Bit rate mode                  : Constant
Bit rate                       : 384 kb/s
Channel(s)                     : 6 channels
Channel layout                 : L R C LFE Ls Rs
Sampling rate                  : 48.0 kHz
Frame rate                     : 31.250 FPS (1536 SPF)
Bit depth                      : 16 bits
Compression mode               : Lossy
Stream size                    : 258 MiB (6%)
Language                       : English
Service kind                   : Complete Main
Default                        : No
Forced                         : No

Text
ID                             : 4
Format                         : UTF-8
Codec ID                       : S_TEXT/UTF8
Codec ID/Info                  : UTF-8 Plain Text
Duration                       : 1 h 32 min
Bit rate                       : 74 b/s
Count of elements              : 1715
Stream size                    : 50.3 KiB (0%)
Language                       : English
Default                        : No
Forced                         : No

Menu
00:00:00.000                   : en:1
00:01:25.000                   : en:2
00:10:28.000                   : en:3
00:19:31.000                   : en:4
00:30:01.000                   : en:5
00:40:43.000                   : en:6
00:50:40.000                   : en:7
01:01:23.000                   : en:8
01:09:52.000                   : en:9
01:18:54.000                   : en:10
01:29:04.000                   : en:11



Скриншоты:
[+] Всего файлов в раздаче - 1:
Unleashed.2017.WEB-DL.1080p.mkv3.92 GB

Показать еще раздачи по запросу парни:
2019-06-10 U Мои парни - животные / Unleashed (2017) WEB-DLRip от MegaPeer | D 1.46 GB ↑ 98 ↓ 21
2018-07-05 U Плохие парни 2 / Bad Boys II (2003) BDRip-HEVC 1080p от ХиМиК | D, P, A | 4K Remastered 10.79 GB ↑ 77 ↓ 11
2018-06-29 U Плохие парни / Bad Boys (1995) BDRip-HEVC 1080p от ХиМиК | D, A | 4K Remastered 1К8.25 GB ↑ 37 ↓ 9
2018-05-04 U Золотые парни [01-14 из 14] (2005) WEBRip-AVC 8.21 GB ↑ 204 ↓ 67
2018-04-17 U Парни из бассейна / Die Freibadclique (2017) WEBRip 720p | L1 1.80 GB ↑ 65 ↓ 27
2018-02-09 U Парни из Трейлерпарка: Обратный отсчет до запоя / Trailer Park Boys: Countdown to Liquor Day (2009) BDRip от Koenig | A 1.45 GB ↑ 109 ↓ 30
2018-02-06 U Звездные парни / Kaiken se kestaa (2017) WEB-DLRip | L2 1.46 GB ↑ 204 ↓ 44

Отзывы
Зарегистрируйтесь чтобы добавить комментарий.
Обратная связь
Copyleft ©