↑↓Torrent.by
Поиск
Логин: Регистрация
Пароль: Восстановить пароль
Загрузка...

Космический фронт. Загадки массового пермского вымирания / Unraveling the Permian Extinction (2018) HDTV 1080i | P2

Скачать kosmicheskiy-front-zagadki-massovogo-permskogo-vymiraniya-unraveling-the-permian-extinction-2018-hdtv-1080i-p2.torrent
U Магнитная ссылка Размер: 2.39 GB Раздают: 41 Качают: 19 Добавлен: 2019-06-11 08:25:04
Космический фронт. Загадки массового пермского вымирания / Unraveling the Permian Extinction (2018) HDTV  1080i | P2

Название: Космический фронт. Загадки массового пермского вымирания
Оригинальное название: Unraveling the Permian Extinction
Год выхода: 2018
Жанр: Документальный, научно-популярный, космос
Режиссер: Казунари Нонобе

О фильме:
250 миллионов лет назад произошло событие, которое уничтожило более 90% видов Земли. Это было величайшее массовое вымирание, когда-либо известное на планете, также называемое пермско-триасовой границей. Новые исследования указывают на вину в неожиданном направлении - «суперконтинент». До этого Великого Умирания континенты объединились, образовав одну гигантскую сушу, которая резко изменила магнитное поле Земли. Гораздо больше космических лучей осыпало, вызывая глобальное похолодание, "зимнюю шлейф" Этот документальный фильм рассказывает о исследованиях вулкана в Эфиопии в Великой рифтовой долине и передовых исследованиях раскопок в Омане. Исследование начинается с недр земли и ведет нас в дальние уголки космоса.


Страна: Япония
Студия: NHK
Продолжительность: ~ 00:51:57
Перевод: Профессиональный (двухголосый) SDI Media

Файл
Кодек: AVC/H.264
Качество: HDTV  1080i
Видео: 1920x1080 (16:9), 25 fps, AVC (Н.264), High@L4, 6070 kbps, 25fps, 0.117 bit/pixel
Звук: Русский 48 kHz, MPEG Layer 2, 2 ch, ~192.00 kbps avg

Семпл

Релиз от: kyba
[+] MediaInfo
Complete name               : F:НаладкиКосмический фронтЗагадки массового пермского вымирания.ts
Format                      : MPEG-TS
File size                   : 2.39 GiB
Duration                    : 51 min 57 s
Overall bit rate mode       : Variable
Overall bit rate            : 6 590 kb/s

Video
ID                          : 323 (0x143)
Menu ID                     : 12103 (0x2F47)
Format                      : AVC
Format/Info                 : Advanced Video Codec
Format profile              : High@L4
Format settings             : CABAC / 4 Ref Frames
Format settings, CABAC      : Yes
Format settings, ReFrames   : 4 frames
Format settings, GOP        : M=4, N=28
Codec ID                    : 27
Duration                    : 51 min 56 s
Bit rate                    : 6 070 kb/s
Width                       : 1 920 pixels
Height                      : 1 080 pixels
Display aspect ratio        : 16:9
Frame rate                  : 25.000 FPS
Standard                    : Component
Color space                 : YUV
Chroma subsampling          : 4:2:0
Bit depth                   : 8 bits
Scan type                   : Interlaced
Scan type, store method     : Separated fields
Scan order                  : Top Field First
Bits/(Pixel*Frame)          : 0.117
Stream size                 : 2.20 GiB (92%)
Color range                 : Limited
Color primaries             : BT.709
Transfer characteristics    : BT.709
Matrix coefficients         : BT.709

Audio
ID                          : 403 (0x193)
Menu ID                     : 12103 (0x2F47)
Format                      : MPEG Audio
Format version              : Version 1
Format profile              : Layer 2
Codec ID                    : 3
Duration                    : 51 min 56 s
Bit rate mode               : Constant
Bit rate                    : 192 kb/s
Channel(s)                  : 2 channels
Sampling rate               : 48.0 kHz
Frame rate                  : 41.667 FPS (1152 SPF)
Compression mode            : Lossy
Delay relative to video     : -120 ms
Stream size                 : 71.3 MiB (3%)
Language                    : Russian



Скриншоты:
[+] Всего файлов в раздаче - 1:
Загадки массового пермского вымирания.ts2.39 GB

Показать еще раздачи по запросу космический:
2018-12-26 U Космический фронт. Путешествие к тайнам Плутона / Cosmic Front. Journey to Revealing Pluto (2015) HDTV 1080i | P1 2.69 GB ↑ 24 ↓ 13
2018-08-05 U Космический пират Харлок / Space Pirate Captain Harlock (2013) HDRip-AVC от ExKinoRay | D 746.08 MB ↑ 219 ↓ 5
2017-07-17 U Космический коктейль / Space Milkshake (2012) HDTVRip 720p | L1 3.11 GB ↑ 80 ↓ 32
2017-05-18 U Космический охотник: Приключения в запретной зоне / Spacehunter: Adventures in the Forbidden Zone (1983) BDRip 720p | P, A 4.54 GB ↑ 36 ↓ 21
2017-01-16 U Космический охотник: Приключения в запретной зоне (1983) WEB-DL 720p | P, A 3.41 GB ↑ 190 ↓ 69
2016-04-10 U Космический полицейский / Space Cop (2016) HDRip | L2 1.46 GB ↑ 500 ↓ 164
2016-04-10 U Космический полицейский / Space Cop (2016) BDRip 720p | L2 4.27 GB ↑ 374 ↓ 282

Отзывы
Зарегистрируйтесь чтобы добавить комментарий.
Обратная связь
Copyleft ©