↑↓Torrent.by
Поиск
Логин: Регистрация
Пароль: Восстановить пароль
Загрузка...

Отель Мумбаи: Противостояние / Hotel Mumbai (2018) BDRemux 1080p от селезень | D, P | iTunes

Скачать otel-mumbai-protivostoyanie-hotel-2018-bdremux-1080p-ot-selezen-d-p-itunes.torrent
U Магнитная ссылка Размер: 34.17 GB Раздают: 89 Качают: 188 Добавлен: 2019-06-12 16:06:59
Отель Мумбаи: Противостояние / Hotel Mumbai (2018) BDRemux 1080p от селезень | D, P | iTunes

Название: Отель Мумбаи: Противостояние
Оригинальное название: Hotel Mumbai
Год выхода: 2018
Жанр: Триллер, драма, история
Режиссер: Энтони Марас
В ролях: Арми Хаммер, Джейсон Айзекс, Назанин Бониади, Дев Патель, Наташа Лю Бордиццо, Амандип Сингх, Сухаил Найар, Манодж Мера, Динеш Кумар, Амриптал Сингх

О фильме:
Индия. Мумбаи. Роскошный отель «Тадж-Махал Палас» — гарантия безопасности. И каждый гость здесь — бог. Но однажды мир красоты, роскоши и комфорта рушится… Три дня противостояния смерти, три дня борьбы за выживание…

Страна: США, Австралия
Студия: A Hamilton and Electric Pictures Production, American Entertainment Investors, Cyan Films
Продолжительность: 02:02:52
Перевод(ы):
#1: Дублированный | iTunes
#2: Профессиональный многоголосый | HDRezka Studio

Качество: BDRemux 1080p
Видео: MPEG-4 AVC, 1920x1080, 35.1 Mbit/s, 23.976 fps
Звук:
Аудио #01: 48 kHz, AC3, 5.1, 384 Kbps | iTunes | RUS |
Аудио #02: 48 kHz, AC3, 2.0, 192 Kbps | HDRezka Studio | RUS |
Аудио #03: 48 kHz, DTS-HD MA, 5.1, 4141 Kbps | Оригинал |  ENG |
Субтитры: Русские (Forced), английские

Релиз:


[+] MI
General
Unique ID                   : 29948400308983972592111604015450452811 (0x1687DA22D7B8A54EF32BDB97762E734B)
Complete name               : D:Video111Hotel.Mumbai.2018.BDREMUX.1080p.seleZen.mkv
Format                      : Matroska
Format version              : Version 4
File size                   : 34.2 GiB
Duration                    : 2 h 2 min
Overall bit rate mode       : Variable
Overall bit rate            : 39.8 Mb/s
Movie name                  : Hotel Mumbai 2018 from селезень
Encoded date                : UTC 2019-06-12 06:27:12
Writing application         : mkvmerge v33.1.0 ('Primrose') 64-bit
Writing library             : libebml v1.3.7 + libmatroska v1.5.0

Video
ID                          : 1
Format                      : AVC
Format/Info                 : Advanced Video Codec
Format profile              : High@L4.1
Format settings             : CABAC / 4 Ref Frames
Format settings, CABAC      : Yes
Format settings, Reference  : 4 frames
Codec ID                    : V_MPEG4/ISO/AVC
Duration                    : 2 h 2 min
Bit rate mode               : Variable
Bit rate                    : 35.1 Mb/s
Maximum bit rate            : 38.0 Mb/s
Width                       : 1 920 pixels
Height                      : 1 080 pixels
Display aspect ratio        : 16:9
Frame rate mode             : Constant
Frame rate                  : 23.976 (24000/1001) FPS
Color space                 : YUV
Chroma subsampling          : 4:2:0
Bit depth                   : 8 bits
Scan type                   : Progressive
Bits/(Pixel*Frame)          : 0.706
Stream size                 : 30.1 GiB (88%)
Language                    : English
Default                     : Yes
Forced                      : No

Audio #1
ID                          : 2
Format                      : AC-3
Format/Info                 : Audio Coding 3
Commercial name             : Dolby Digital
Codec ID                    : A_AC3
Duration                    : 2 h 2 min
Bit rate mode               : Constant
Bit rate                    : 384 kb/s
Channel(s)                  : 6 channels
Channel layout              : L R C LFE Ls Rs
Sampling rate               : 48.0 kHz
Frame rate                  : 31.250 FPS (1536 SPF)
Bit depth                   : 16 bits
Compression mode            : Lossy
Stream size                 : 338 MiB (1%)
Title                       : Dub [iTunes]
Language                    : Russian
Service kind                : Complete Main
Default                     : Yes
Forced                      : Yes

Audio #2
ID                          : 3
Format                      : AC-3
Format/Info                 : Audio Coding 3
Commercial name             : Dolby Digital
Codec ID                    : A_AC3
Duration                    : 2 h 2 min
Bit rate mode               : Constant
Bit rate                    : 192 kb/s
Channel(s)                  : 2 channels
Channel layout              : L R
Sampling rate               : 48.0 kHz
Frame rate                  : 31.250 FPS (1536 SPF)
Bit depth                   : 16 bits
Compression mode            : Lossy
Stream size                 : 169 MiB (0%)
Title                       : MVO [HDRezka Studio]
Language                    : Russian
Service kind                : Complete Main
Default                     : No
Forced                      : No

Audio #3
ID                          : 4
Format                      : DTS XLL
Format/Info                 : Digital Theater Systems
Commercial name             : DTS-HD Master Audio
Codec ID                    : A_DTS
Duration                    : 2 h 2 min
Bit rate mode               : Variable
Bit rate                    : 4 141 kb/s
Channel(s)                  : 6 channels
Channel layout              : C L R Ls Rs LFE
Sampling rate               : 48.0 kHz
Frame rate                  : 93.750 FPS (512 SPF)
Bit depth                   : 24 bits
Compression mode            : Lossless
Stream size                 : 3.55 GiB (10%)
Title                       : Original
Language                    : English
Default                     : No
Forced                      : No

Text #1
ID                          : 5
Format                      : UTF-8
Codec ID                    : S_TEXT/UTF8
Codec ID/Info               : UTF-8 Plain Text
Duration                    : 1 h 52 min
Bit rate                    : 3 b/s
Count of elements           : 39
Stream size                 : 2.66 KiB (0%)
Title                       : Forced
Language                    : Russian
Default                     : Yes
Forced                      : Yes

Text #2
ID                          : 6
Format                      : UTF-8
Codec ID                    : S_TEXT/UTF8
Codec ID/Info               : UTF-8 Plain Text
Duration                    : 1 h 52 min
Bit rate                    : 33 b/s
Count of elements           : 915
Stream size                 : 28.0 KiB (0%)
Title                       : Full
Language                    : English
Default                     : No
Forced                      : No

Menu
00:00:00.000                : en:Chapter 1
00:06:37.938                : en:Chapter 2
00:15:50.866                : en:Chapter 3
00:24:23.378                : en:Chapter 4
00:36:02.826                : en:Chapter 5
00:48:46.965                : en:Chapter 6
01:00:38.217                : en:Chapter 7
01:15:28.356                : en:Chapter 8
01:27:47.094                : en:Chapter 9
01:37:14.494                : en:Chapter 10
01:46:32.468                : en:Chapter 11
01:55:33.259                : en:Chapter 12



Скриншоты:
[+] Всего файлов в раздаче - 1:
Hotel.Mumbai.2018.BDREMUX.1080p.seleZen.mkv34.17 GB

Показать еще раздачи по запросу отель:
2019-06-23 U Отель Мумбаи: Противостояние / Hotel Mumbai (2018) BDRip-AVC от OlLanDGroup | D, P | iTunes 2.42 GB ↑ 32 ↓ 14
2019-06-23 U Отель Мумбаи: Противостояние / Hotel Mumbai (2018) BDRip от MegaPeer | iTunes 2.13 GB ↑ 58 ↓ 17
2019-06-22 U Отель Мумбаи: Противостояние / Hotel Mumbai (2018) BDRip-HEVC 1080p от HANNIBAL | iTunes 8.92 GB ↑ 148 ↓ 67
2019-06-22 U Отель Мумбаи: Противостояние / Hotel Mumbai (2018) BDRip от MegaPeer | iTunes 1.46 GB ↑ 94 ↓ 44
2019-06-16 U Отель Мумбаи: Противостояние / Hotel Mumbai (2018) BDRip от Twister & ExKinoRay | iTunes 2.13 GB ↑ 41 ↓ 16
2019-06-15 U Отель Мумбаи: Противостояние / Hotel Mumbai (2018) BDRip 720p от k.e.n & MegaPeer | D, P | iTunes 5.35 GB ↑ 199 ↓ 68
2019-06-14 U Отель Мумбаи: Противостояние / Hotel Mumbai (2018) HDRip от Scarabey | iTunes 1.45 GB ↑ 149 ↓ 52

Отзывы
Зарегистрируйтесь чтобы добавить комментарий.
Обратная связь
Copyleft ©