↑↓Torrent.by
Поиск
Логин: Регистрация
Пароль: Восстановить пароль
Загрузка...

Пляжный бездельник / The Beach Bum (2019) BDRip 720p от селезень | iTunes

Скачать plyazhnyy-bezdelnik-the-beach-bum-2019-bdrip-720p-ot-selezen-itunes.torrent
U Магнитная ссылка Размер: 5.35 GB Раздают: 80 Качают: 45 Добавлен: 2019-06-13 07:17:02
Пляжный бездельник / The Beach Bum (2019) BDRip 720p от селезень | iTunes

Название: Пляжный бездельник
Оригинальное название: The Beach Bum
Год выхода: 2019
Жанр: Комедия
Режиссер: Хармони Корин
В ролях: Мэттью МакКонахи, Снуп Догг, Айла Фишер, Стефания Оуэн, Мартин Лоуренс, Зак Эфрон, Джона Хилл, Донован Сент Ви Уильямс, Клинтон Арчамбо, Джерри Асчьоне, Джимми Баффетт

О фильме: Отвязный тусовщик по кличке Лунный пёс плевать хотел на все общественные нормы. Все, что ему нужно, - это бабки на бухло и пляжные вечеринки. Но если он не допишет поэму, не получит наследства покойной жены. И стоит ли из-за этого париться?

Страна: США, Великобритания
Студия: Iconoclast, Anonymous Content, Grisbi Productions, Le
Продолжительность: 01:34:40
Перевод: Дублированный | iTunes

Качество: BDRip 720p
Видео: MPEG-4 AVC, 1280x538, 7061 Кbit/s, 23.976 fps
Звук:
Аудио #01: 48 kHz, AC3, 5.1, 384 Kbps | iTunes | RUS |
Аудио #02: 48 kHz, AC3, 5.1, 640 Kbps | Оригинал |  ENG |
Субтитры: Английские

Релиз:


[+] MI
General
Unique ID                   : 22690780990417271338601716641468174721 (0x111215E0842FF459ADA1946E0C8ED181)
Complete name               : D:Video111The.Beach.Bum.2019.BDRip.720p.seleZen.mkv
Format                      : Matroska
Format version              : Version 4
File size                   : 5.35 GiB
Duration                    : 1 h 34 min
Overall bit rate            : 8 087 kb/s
Movie name                  : The Beach Bum 2019 from селезень
Encoded date                : UTC 2019-06-12 16:07:41
Writing application         : mkvmerge v33.1.0 ('Primrose') 64-bit
Writing library             : libebml v1.3.7 + libmatroska v1.5.0

Video
ID                          : 1
Format                      : AVC
Format/Info                 : Advanced Video Codec
Format profile              : High@L4.1
Format settings             : CABAC / 12 Ref Frames
Format settings, CABAC      : Yes
Format settings, Reference  : 12 frames
Codec ID                    : V_MPEG4/ISO/AVC
Duration                    : 1 h 34 min
Bit rate                    : 7 061 kb/s
Width                       : 1 280 pixels
Height                      : 538 pixels
Display aspect ratio        : 2.40:1
Frame rate mode             : Constant
Frame rate                  : 23.976 (24000/1001) FPS
Color space                 : YUV
Chroma subsampling          : 4:2:0
Bit depth                   : 8 bits
Scan type                   : Progressive
Bits/(Pixel*Frame)          : 0.428
Stream size                 : 4.67 GiB (87%)
Title                       : MTeam
Writing library             : x264 core 157 r2938 2b00a84 TnP@MTeam Mod
Encoding settings           : cabac=1 / ref=12 / deblock=1:-3:-3 / analyse=0x3:0x133 / me=umh / subme=10 / psy=1 / psy_rd=1.05:0.00 / mixed_ref=1 / me_range=32 / chroma_me=1 / trellis=2 / 8x8dct=1 / cqm=0 / deadzone=21,11 / fast_pskip=0 / chroma_qp_offset=-2 / threads=12 / lookahead_threads=2 / sliced_threads=0 / nr=0 / decimate=0 / interlaced=0 / bluray_compat=0 / constrained_intra=0 / bframes=8 / b_pyramid=2 / b_adapt=2 / b_bias=0 / direct=3 / weightb=1 / open_gop=0 / weightp=2 / keyint=250 / keyint_min=24 / scenecut=40 / intra_refresh=0 / rc_lookahead=250 / rc=crf / mbtree=0 / crf=15.7 / qcomp=0.60 / qpmin=0 / qpmax=69 / qpstep=4 / vbv_maxrate=62500 / vbv_bufsize=78125 / crf_max=0.0 / nal_hrd=none / filler=0 / ip_ratio=1.30 / pb_ratio=1.20 / aq=3:0.80
Language                    : English
Default                     : Yes
Forced                      : No
Color range                 : Limited
Color primaries             : BT.709
Matrix coefficients         : BT.709

Audio #1
ID                          : 2
Format                      : AC-3
Format/Info                 : Audio Coding 3
Commercial name             : Dolby Digital
Codec ID                    : A_AC3
Duration                    : 1 h 34 min
Bit rate mode               : Constant
Bit rate                    : 384 kb/s
Channel(s)                  : 6 channels
Channel layout              : L R C LFE Ls Rs
Sampling rate               : 48.0 kHz
Frame rate                  : 31.250 FPS (1536 SPF)
Bit depth                   : 16 bits
Compression mode            : Lossy
Stream size                 : 260 MiB (5%)
Title                       : iTunes
Language                    : Russian
Service kind                : Complete Main
Default                     : Yes
Forced                      : Yes

Audio #2
ID                          : 3
Format                      : AC-3
Format/Info                 : Audio Coding 3
Commercial name             : Dolby Digital
Codec ID                    : A_AC3
Duration                    : 1 h 34 min
Bit rate mode               : Constant
Bit rate                    : 640 kb/s
Channel(s)                  : 6 channels
Channel layout              : L R C LFE Ls Rs
Sampling rate               : 48.0 kHz
Frame rate                  : 31.250 FPS (1536 SPF)
Bit depth                   : 16 bits
Compression mode            : Lossy
Stream size                 : 433 MiB (8%)
Title                       : Original
Language                    : English
Service kind                : Complete Main
Default                     : No
Forced                      : No

Text
ID                          : 4
Format                      : UTF-8
Codec ID                    : S_TEXT/UTF8
Codec ID/Info               : UTF-8 Plain Text
Duration                    : 1 h 31 min
Bit rate                    : 79 b/s
Count of elements           : 1348
Stream size                 : 53.0 KiB (0%)
Language                    : English
Default                     : No
Forced                      : No

Menu
00:00:00.000                : en:Chapter 01
00:09:30.570                : en:Chapter 02
00:21:07.224                : en:Chapter 03
00:31:56.998                : en:Chapter 04
00:40:55.870                : en:Chapter 05
00:51:46.770                : en:Chapter 06
01:07:11.027                : en:Chapter 07
01:29:03.088                : en:Chapter 08



Скриншоты:
[+] Всего файлов в раздаче - 1:
The.Beach.Bum.2019.BDRip.720p.seleZen.mkv5.35 GB

Показать еще раздачи по запросу пляжный:
2019-06-20 U Пляжный бездельник / The Beach Bum (2019) Blu-Ray Remux 1080p | iTunes 17.63 GB ↑ 28 ↓ 19
2019-06-20 U Пляжный бездельник / The Beach Bum (2019) BDRip от MegaPeer | iTunes 25К1.42 GB ↑ 101 ↓ 21
2019-06-16 U Пляжный бездельник / The Beach Bum (2019) HDRip от Scarabey | iTunes 1.40 GB ↑ 64 ↓ 22
2019-06-13 U Пляжный бездельник / The Beach Bum (2019) BDRip 1080p от селезень | iTunes 12.50 GB ↑ 109 ↓ 58
2019-05-31 U Пляжный бездельник / The Beach Bum (2019) WEB-DLRip от Scarabey | iTunes 1.45 GB ↑ 84 ↓ 24
2019-05-30 U Пляжный бездельник / The Beach Bum (2019) WEB-DLRip-AVC | iTunes 743.46 MB ↑ 65 ↓ 29
2019-05-30 U Пляжный бездельник / The Beach Bum (2019) WEB-DL 1080p | iTunes 3.13 GB ↑ 492 ↓ 151

Отзывы
Зарегистрируйтесь чтобы добавить комментарий.
Обратная связь
Copyleft ©