↑↓Torrent.by
Поиск
Логин: Регистрация
Пароль: Восстановить пароль
Загрузка...

Игры разумов / The Professor and the Madman (2019) BDRemux 1080p от селезень | D, P | iTunes

Скачать igry-razumov-the-professor-and-madman-2019-bdremux-1080p-ot-selezen-d-p-itunes.torrent
U Магнитная ссылка Размер: 27.01 GB Раздают: 64 Качают: 20 Добавлен: 2019-06-13 07:17:16
Игры разумов / The Professor and the Madman (2019) BDRemux 1080p от селезень | D, P | iTunes

Название: Игры разумов
Оригинальное название: The Professor and the Madman
Год выхода: 2019
Жанр: Триллер, драма, детектив, биография
Режиссер: Фарад Сафиниа
В ролях: Мэл Гибсон, Шон Пенн, Натали Дормер, Джереми Ирвин, Дженнифер Или, Стив Кугэн, Стивен Диллэйн, Эдди Марсан, Йоан Гриффит, Лоуренс Фокс

О фильме:
Англия середины XIX века. Оксфордский профессор Джеймс Мюррей работает над первым в истории словарем английского языка, а его главным соратником становится заключенный психиатрической клиники для особо опасных преступников — доктор Уильям Майнор. Гений Майнор или сумасшедший, хитроумный преступник, ведущий дерзкую игру, чтобы вырваться на свободу, или одержимый ученый? И кто тогда Мюррей: верный друг, жертва манипуляции или организатор сговора?

Страна: Ирландия
Студия: Fastnet Films, 22h22, Caviar Antwerp NV
Продолжительность: 02:04:41
Перевод(ы):
#1: Дублированный | iTunes
#2: Профессиональный многоголосый | HDRezka Studio

Качество: BDRemux 1080p
Видео: MPEG-4 AVC, 1920x1080, 30.0 Mbit/s, 23.976 fps
Звук:
Аудио #01: 48 kHz, AC3, 5.1, 384 Kbps | iTunes | RUS |
Аудио #02: 48 kHz, AC3, 2.0, 192 Kbps | HDRezka Studio | RUS |
Аудио #03: 48 kHz, DTS-HD MA, 5.1, 1853 Kbps | Оригинал |  ENG |
Субтитры: Русские (Full), английские

Релиз:


[+] MI
General
Unique ID                   : 141403449912809237268989539375556998468 (0x6A615057FE54E9A3441D59689B263544)
Complete name               : D:Video111The.Professor.and.the.Madman.2019.BDREMUX.1080p.seleZen.mkv
Format                      : Matroska
Format version              : Version 4
File size                   : 27.0 GiB
Duration                    : 2 h 4 min
Overall bit rate mode       : Variable
Overall bit rate            : 31.0 Mb/s
Movie name                  : The Professor and the Madman 2019 from селезень
Encoded date                : UTC 2019-06-12 07:33:46
Writing application         : mkvmerge v33.1.0 ('Primrose') 64-bit
Writing library             : libebml v1.3.7 + libmatroska v1.5.0

Video
ID                          : 1
Format                      : AVC
Format/Info                 : Advanced Video Codec
Format profile              : High@L4.1
Format settings             : CABAC / 4 Ref Frames
Format settings, CABAC      : Yes
Format settings, Reference  : 4 frames
Codec ID                    : V_MPEG4/ISO/AVC
Duration                    : 2 h 4 min
Bit rate mode               : Constant
Bit rate                    : 30.0 Mb/s
Width                       : 1 920 pixels
Height                      : 1 080 pixels
Display aspect ratio        : 16:9
Frame rate mode             : Constant
Frame rate                  : 23.976 (24000/1001) FPS
Standard                    : NTSC
Color space                 : YUV
Chroma subsampling          : 4:2:0
Bit depth                   : 8 bits
Scan type                   : Progressive
Bits/(Pixel*Frame)          : 0.603
Stream size                 : 24.9 GiB (92%)
Language                    : English
Default                     : Yes
Forced                      : No
Color range                 : Limited
Color primaries             : BT.709
Transfer characteristics    : BT.709
Matrix coefficients         : BT.709

Audio #1
ID                          : 2
Format                      : AC-3
Format/Info                 : Audio Coding 3
Commercial name             : Dolby Digital
Codec ID                    : A_AC3
Duration                    : 2 h 4 min
Bit rate mode               : Constant
Bit rate                    : 384 kb/s
Channel(s)                  : 6 channels
Channel layout              : L R C LFE Ls Rs
Sampling rate               : 48.0 kHz
Frame rate                  : 31.250 FPS (1536 SPF)
Bit depth                   : 16 bits
Compression mode            : Lossy
Stream size                 : 342 MiB (1%)
Title                       : Dub [iTunes]
Language                    : Russian
Service kind                : Complete Main
Default                     : Yes
Forced                      : Yes

Audio #2
ID                          : 3
Format                      : AC-3
Format/Info                 : Audio Coding 3
Commercial name             : Dolby Digital
Codec ID                    : A_AC3
Duration                    : 2 h 4 min
Bit rate mode               : Constant
Bit rate                    : 192 kb/s
Channel(s)                  : 2 channels
Channel layout              : L R
Sampling rate               : 48.0 kHz
Frame rate                  : 31.250 FPS (1536 SPF)
Bit depth                   : 16 bits
Compression mode            : Lossy
Stream size                 : 171 MiB (1%)
Title                       : MVO [HDRezka Studio]
Language                    : Russian
Service kind                : Complete Main
Default                     : No
Forced                      : No

Audio #3
ID                          : 4
Format                      : DTS XLL
Format/Info                 : Digital Theater Systems
Commercial name             : DTS-HD Master Audio
Codec ID                    : A_DTS
Duration                    : 2 h 4 min
Bit rate mode               : Variable
Bit rate                    : 1 853 kb/s
Channel(s)                  : 6 channels
Channel layout              : C L R Ls Rs LFE
Sampling rate               : 48.0 kHz
Frame rate                  : 93.750 FPS (512 SPF)
Bit depth                   : 16 bits
Compression mode            : Lossless
Stream size                 : 1.61 GiB (6%)
Title                       : Original
Language                    : English
Default                     : No
Forced                      : No

Text #1
ID                          : 5
Format                      : UTF-8
Codec ID                    : S_TEXT/UTF8
Codec ID/Info               : UTF-8 Plain Text
Duration                    : 1 h 58 min
Bit rate                    : 108 b/s
Count of elements           : 1537
Stream size                 : 94.5 KiB (0%)
Title                       : Full
Language                    : Russian
Default                     : No
Forced                      : No

Text #2
ID                          : 6
Format                      : UTF-8
Codec ID                    : S_TEXT/UTF8
Codec ID/Info               : UTF-8 Plain Text
Duration                    : 1 h 56 min
Bit rate                    : 65 b/s
Count of elements           : 1581
Stream size                 : 55.9 KiB (0%)
Title                       : Full
Language                    : English
Default                     : No
Forced                      : No

Text #3
ID                          : 7
Format                      : UTF-8
Codec ID                    : S_TEXT/UTF8
Codec ID/Info               : UTF-8 Plain Text
Duration                    : 1 h 57 min
Bit rate                    : 68 b/s
Count of elements           : 1666
Stream size                 : 58.4 KiB (0%)
Title                       : SDH
Language                    : English
Default                     : No
Forced                      : No

Menu
00:00:00.000                : en:Chapter 1
00:15:11.327                : en:Chapter 2
00:42:26.335                : en:Chapter 3
01:05:14.202                : en:Chapter 4
01:26:20.550                : en:Chapter 5
01:45:36.247                : en:Chapter 6



Скриншоты:
[+] Всего файлов в раздаче - 1:
The.Professor.and.the.Madman.2019.BDREMUX.1080p.seleZen.mkv27.01 GB

Показать еще раздачи по запросу игры:
2019-06-16 U Игры разумов / The Professor and the Madman (2019) BDRip от Twister & ExKinoRay | iTunes 2.13 GB ↑ 90 ↓ 18
2019-06-13 U Игры разумов / The Professor and the Madman (2019) BDRip от MegaPeer | iTunes 2.12 GB ↑ 65 ↓ 10
2019-06-13 U Игры разумов / The Professor and the Madman (2019) BDRip 1080p от селезень | D, P | iTunes 9.77 GB ↑ 92 ↓ 32
2019-06-12 U Игры разумов / The Professor and the Madman (2019) BDRip от MegaPeer | iTunes 1.46 GB ↑ 102 ↓ 34
2019-06-11 U Игры разумов / The Professor and the Madman (2019) WEB-DLRip-AVC | iTunes 1.47 GB ↑ 62 ↓ 17
2019-06-11 U Игры разумов / The Professor and the Madman (2019) WEB-DL-HEVC 1080p | iTunes 4.21 GB ↑ 74 ↓ 23
2019-06-11 U Игры разумов / The Professor and the Madman (2019) WEB-DLRip | iTunes 793.91 MB ↑ 27 ↓ 12

Отзывы
Зарегистрируйтесь чтобы добавить комментарий.
Обратная связь
Copyleft ©