↑↓Torrent.by
Поиск
Логин: Регистрация
Пароль: Восстановить пароль
Загрузка...

Отель Мумбаи: Противостояние / Hotel Mumbai (2018) BDRip-AVC от OlLanDGroup | D, P | iTunes

Скачать otel-mumbai-protivostoyanie-hotel-2018-bdrip-avc-ot-ollandgroup-d-p-itunes.torrent
U Магнитная ссылка Размер: 2.03 GB Раздают: 53 Качают: 25 Добавлен: 2019-06-13 07:18:44
Отель Мумбаи: Противостояние / Hotel Mumbai (2018) BDRip-AVC от OlLanDGroup | D, P | iTunes

Отель Мумбаи: Противостояние / Hotel Mumbai
«Только правда...»

Год выпуска: 2018
Страна: США, Австралия
Производство: A Hamilton and Electric Pictures Production, American Entertainment Investors, Cyan Films
Жанр:  Триллер, драма, история

Режиссёр: Энтони Марас
В ролях: Арми Хаммер, Джейсон Айзекс, Назанин Бониади, Дев Патель, Наташа Лю Бордиццо, Амандип Сингх, Сухаил Найар, Манодж Мера, Динеш Кумар, Амриптал Сингх

Перевод: Дублированный | [iTunes], Профессиональный многоголосый | [HDRezka Studio]
Субтитры: Русские (форс.), Английские (полные)
Реклама: Отсутствует

Описание: Индия. Мумбаи. Роскошный отель «Тадж-Махал Палас» — гарантия безопасности. И каждый гость здесь — бог. Но однажды мир красоты, роскоши и комфорта рушится… Три дня противостояния смерти, три дня борьбы за выживание…

Качество: BDRip-AVC | BluRay Disc | Hotel.Mumbai.2018.BluRay.1080p.AVC.DTS-HD.MA5.1-MTeam
Продолжительность: 02:02:53

Формат: MKV
Видео кодек: MPEG-4 AVC
Аудио кодек: AC3
Видео: 1024x430 (2.40:1), 23,976 fps, x264 ~1 789 kbps avg, 0.169 bit/pixel
Аудио #1: 48 kHz, AC3 Dolby Digital, 3/2 (L,C,R,l,r) + LFE ch, ~384.00 kbps avg | RUS (iTunes)
Аудио #2: 48 kHz, AC3 Dolby Digital, 2 (L,R) ch, ~192.00 kbps avg | RUS (HDRezka Studio)

Дата премьеры (мир): 7 сентября 2018
Дата премьеры (РФ): 9 мая 2019, «Парадиз»
Цифровой релиз: 10 июня 2019

Релиз: Rip by:


[+] MediaInfo

Общее
Уникальный идентификатор                 : 35773065708286200014157497881110147592 (0x1AE9A44FF467E3439E93F2ADDAEA7208)
Полное имя                               : F:OlLanDGroupHotel.Mumbai.2018.BDRip(AVC).OlLanDGroup.mkv
Формат                                   : Matroska
Версия формата                           : Version 4 / Version 2
Размер файла                             : 2,03 Гбайт
Продолжительность                        : 2 ч. 2 м.
Общий поток                              : 2362 Кбит/сек
Название фильма                          : Hotel.Mumbai.2018   #TorpedoUK#
Дата кодирования                         : UTC 2019-06-13 01:30:53
Программа кодирования                    : mkvmerge v29.0.0 ('Like It Or Not') 64-bit
Библиотека кодирования                   : libebml v1.3.6 + libmatroska v1.4.9

Видео
Идентификатор                            : 1
Формат                                   : AVC
Формат/Информация                        : Advanced Video Codec
Профиль формата                          : High@L4.1
Параметр CABAC формата                   : Да
Параметр ReFrames формата                : 10 кадров
Идентификатор кодека                     : V_MPEG4/ISO/AVC
Продолжительность                        : 2 ч. 2 м.
Битрейт                                  : 1789 Кбит/сек
Ширина                                   : 1024 пикселя
Высота                                   : 430 пикселей
Соотношение сторон                       : 2,40:1
Режим частоты кадров                     : Постоянный
Частота кадров                           : 23,976 (24000/1001) кадра/сек
Цветовое пространство                    : YUV
Субдискретизация насыщенности            : 4:2:0
Битовая глубина                          : 8 бит
Тип развёртки                            : Прогрессивная
Бит/(Пиксели*Кадры)                      : 0.169
Размер потока                            : 1,53 Гбайт (76%)
Библиотека кодирования                   : x264 core 146 r2538 121396c
Настройки программы                      : cabac=1 / ref=10 / deblock=1:-3:-3 / analyse=0x3:0x113 / me=umh / subme=11 / psy=1 / psy_rd=0.97:0.05 / mixed_ref=1 / me_range=48 / chroma_me=1 / trellis=2 / 8x8dct=1 / cqm=0 / deadzone=21,11 / fast_pskip=1 / chroma_qp_offset=-3 / threads=6 / lookahead_threads=1 / sliced_threads=0 / nr=0 / decimate=1 / interlaced=0 / bluray_compat=0 / constrained_intra=0 / bframes=11 / b_pyramid=2 / b_adapt=2 / b_bias=0 / direct=3 / weightb=1 / open_gop=0 / weightp=2 / keyint=240 / keyint_min=23 / scenecut=40 / intra_refresh=0 / rc_lookahead=40 / rc=2pass / mbtree=0 / bitrate=1789 / ratetol=1.0 / qcomp=0.60 / qpmin=0 / qpmax=69 / qpstep=4 / cplxblur=20.0 / qblur=0.5 / vbv_maxrate=50000 / vbv_bufsize=62500 / nal_hrd=none / filler=0 / ip_ratio=1.40 / pb_ratio=1.30 / aq=1:1.00
Язык                                     : English
Default                                  : Да
Forced                                   : Нет

Аудио #1
Идентификатор                            : 2
Формат                                   : AC-3
Формат/Информация                        : Audio Coding 3
Расширение режима                        : CM (complete main)
Параметр Endianness формата              : Big
Идентификатор кодека                     : A_AC3
Продолжительность                        : 2 ч. 2 м.
Вид битрейта                             : Постоянный
Битрейт                                  : 384 Кбит/сек
Каналы                                   : 6 каналов
Расположение каналов                     : Front: L C R, Side: L R, LFE
Частота                                  : 48,0 КГц
Частота кадров                           : 31,250 кадров/сек (1536 spf)
Битовая глубина                          : 16 бит
Метод сжатия                             : С потерями
Размер потока                            : 338 Мбайт (16%)
Заголовок                                : DUB [iTunes]
Язык                                     : Russian
Default                                  : Да
Forced                                   : Нет

Аудио #2
Идентификатор                            : 3
Формат                                   : AC-3
Формат/Информация                        : Audio Coding 3
Расширение режима                        : CM (complete main)
Параметр Endianness формата              : Big
Идентификатор кодека                     : A_AC3
Продолжительность                        : 2 ч. 2 м.
Вид битрейта                             : Постоянный
Битрейт                                  : 192 Кбит/сек
Каналы                                   : 2 канала
Расположение каналов                     : Front: L R
Частота                                  : 48,0 КГц
Частота кадров                           : 31,250 кадров/сек (1536 spf)
Битовая глубина                          : 16 бит
Метод сжатия                             : С потерями
Размер потока                            : 169 Мбайт (8%)
Заголовок                                : MVO [HDRezka Studio]
Язык                                     : Russian
Default                                  : Нет
Forced                                   : Нет

Текст #1
Идентификатор                            : 4
Формат                                   : UTF-8
Идентификатор кодека                     : S_TEXT/UTF8
Идентификатор кодека/Информация          : UTF-8 Plain Text
Продолжительность                        : 1 ч. 52 м.
Битрейт                                  : 3 бит/сек
Count of elements                        : 39
Размер потока                            : 2,66 Кбайт (0%)
Заголовок                                : Forced
Язык                                     : Russian
Default                                  : Да
Forced                                   : Нет

Текст #2
Идентификатор                            : 5
Формат                                   : UTF-8
Идентификатор кодека                     : S_TEXT/UTF8
Идентификатор кодека/Информация          : UTF-8 Plain Text
Продолжительность                        : 1 ч. 52 м.
Битрейт                                  : 33 бит/сек
Count of elements                        : 915
Размер потока                            : 28,0 Кбайт (0%)
Заголовок                                : Full
Язык                                     : English
Default                                  : Нет
Forced                                   : Нет

Меню
00:00:00.000                             : :Глава 01
00:06:38.481                             : :Глава 02
00:15:51.742                             : :Глава 03
00:24:23.420                             : :Глава 04
00:36:02.869                             : :Глава 05
00:48:47.341                             : :Глава 06
01:00:39.177                             : :Глава 07
01:15:30.567                             : :Глава 08
01:27:51.182                             : :Глава 09
01:37:14.578                             : :Глава 10
01:46:32.552                             : :Глава 11
01:55:33.635                             : :Глава 12



Скриншоты:
[+] Всего файлов в раздаче - 1:
Hotel.Mumbai.2018.BDRip(AVC).OlLanDGroup.mkv2.03 GB

Показать еще раздачи по запросу отель:
2019-06-23 U Отель Мумбаи: Противостояние / Hotel Mumbai (2018) BDRip-AVC от OlLanDGroup | D, P | iTunes 2.42 GB ↑ 32 ↓ 14
2019-06-23 U Отель Мумбаи: Противостояние / Hotel Mumbai (2018) BDRip от MegaPeer | iTunes 2.13 GB ↑ 58 ↓ 17
2019-06-22 U Отель Мумбаи: Противостояние / Hotel Mumbai (2018) BDRip-HEVC 1080p от HANNIBAL | iTunes 8.92 GB ↑ 148 ↓ 67
2019-06-22 U Отель Мумбаи: Противостояние / Hotel Mumbai (2018) BDRip от MegaPeer | iTunes 1.46 GB ↑ 94 ↓ 44
2019-06-16 U Отель Мумбаи: Противостояние / Hotel Mumbai (2018) BDRip от Twister & ExKinoRay | iTunes 2.13 GB ↑ 41 ↓ 16
2019-06-15 U Отель Мумбаи: Противостояние / Hotel Mumbai (2018) BDRip 720p от k.e.n & MegaPeer | D, P | iTunes 5.35 GB ↑ 199 ↓ 68
2019-06-14 U Отель Мумбаи: Противостояние / Hotel Mumbai (2018) HDRip от Scarabey | iTunes 1.45 GB ↑ 149 ↓ 52

Отзывы
Зарегистрируйтесь чтобы добавить комментарий.
Обратная связь
Copyleft ©