↑↓Torrent.by
Поиск
Логин: Регистрация
Пароль: Восстановить пароль
Загрузка...

Омерзительная восьмерка / The Hateful Eight (2015) WEB-DLRip 1080p от HDReactor | D, P, А | Extended Cut

Скачать omerzitelnaya-vosmerka-the-hateful-eight-2015-web-dlrip-1080p-ot-hdreactor-d-p-a-extended-cut.torrent
U Магнитная ссылка Размер: 17.48 GB Раздают: 25 Качают: 7 Добавлен: 2019-06-13 07:19:02
Омерзительная восьмерка / The Hateful Eight (2015) WEB-DLRip 1080p от HDReactor | D, P, А | Extended Cut

Название: Омерзительная восьмерка
Оригинальное название: The Hateful Eight
Год выхода: 2015
Жанр:  Триллер, драма, криминал, детектив, вестерн
Режиссер: Квентин Тарантино
В ролях: Курт Расселл, Сэмюэл Л. Джексон, Тим Рот, Майкл Мэдсен, Дженнифер Джейсон Ли, Уолтон Гоггинс, Демиан Бишир, Брюс Дерн, Джеймс Паркс, Дэна Гурье, Зои Белл, Ли Хорсли, Джин Джонс, Кит Джеффресон, Крэйг Старк, Белинда Овино, Ченнинг Татум, Брюс Дель Кастилло, Квентин Тарантино

О фильме:
Эта добрая история от Квентина Тарантино начинается в занесенных снегами полях Вайоминга вблизи Скалистых гор спустя два года после окончания Гражданской войны. Знаменитый охотник за головами Джон "Вешатель" Рут галантно сопровождает до ближайшей виселицы некую Дейзи Домергу, беспрестанно демонстрирующую ослепительную улыбку в три зуба. На дороге они подбирают еще двоих случайных попутчиков. Все четверо вынуждены искать укрытие от надвигающегося снежного бурана в галантерейной лавке Минни на горном перевале, где их ожидает целый парк кровавых аттракционов.

Выпущено: США / The Weinstein Company LLC
Продолжительность: 4 x 00:52:00
Озвучивание: профессиональное многоголосое, дублированное (со вставками авторского на расширенные места), авторское (Д.Есарев)

Файл
Качество: WEB-DLRip 1080p
Видео: 1920x696, ~9500 Кbit/s, 23.976 fps
Аудио #1: Русский, 48 kHz, AC3, 5.1, 640 Kbps | Профессиональный многоголосый (СВ студия)
Аудио #2: Русский, 48 kHz, AC3, 5.1, 640 Kbps | Авторский (Д.Есарев)
Аудио #3: Русский, 48 kHz, AC3, 5.1, 640 Kbps | Дублированный (+ авторский на расширенные места)
Аудио #4: Английский, 48 kHz, AC3, 5.1, 448 kbps | Оригинал
Субтитры: Английские

Семпл


Релиз:

Театральная версия


[+] МедиаИнфо
Формат                                   : Matroska
Версия формата                           : Version 2
Размер файла                             : 4,37 Гбайт
Продолжительность                        : 51 м. 41 с.
Общий поток                              : 12,1 Мбит/сек
Название фильма                          : ~V ad~
Дата кодирования                         : UTC 2019-06-13 04:04:21
Программа кодирования                    : mkvmerge v6.5.0 ('Isn't she lovely') built on Oct 20 2013 12:50:05
Библиотека кодирования                   : libebml v1.3.0 + libmatroska v1.4.1
Обложка                                  : Yes
Attachments                              : cover2.jpg

Видео
Идентификатор                            : 1
Формат                                   : AVC
Формат/Информация                        : Advanced Video Codec
Профиль формата                          : High@L4.1
Настройки формата                        : CABAC / 5 Ref Frames
Параметр CABAC формата                   : Да
Параметр RefFrames формата               : 5 кадров
Идентификатор кодека                     : V_MPEG4/ISO/AVC
Продолжительность                        : 51 м. 41 с.
Битрейт                                  : 9737 Кбит/сек
Ширина                                   : 1920 пикселей
Высота                                   : 696 пикселей
Соотношение сторон                       : 2,759
Режим частоты кадров                     : Постоянный
Частота кадров                           : 23,976 (24000/1001) кадра/сек
Цветовое пространство                    : YUV
Субдискретизация насыщенности            : 4:2:0
Битовая глубина                          : 8 бит
Тип развёртки                            : Прогрессивная
Бит/(Пиксели*Кадры)                      : 0.304
Размер потока                            : 3,43 Гбайт (78%)
Заголовок                                : ~V~
Библиотека кодирования                   : x264 core 157 r2969 d4099dd
Настройки программы                      : cabac=1 / ref=5 / deblock=1:-3:-3 / analyse=0x3:0x133 / me=umh / subme=11 / psy=1 / psy_rd=1.00:0.00 / mixed_ref=1 / me_range=40 / chroma_me=1 / trellis=2 / 8x8dct=1 / cqm=0 / deadzone=21,11 / fast_pskip=0 / chroma_qp_offset=-2 / threads=12 / lookahead_threads=1 / sliced_threads=0 / nr=0 / decimate=0 / interlaced=0 / bluray_compat=0 / constrained_intra=0 / bframes=12 / b_pyramid=2 / b_adapt=2 / b_bias=0 / direct=3 / weightb=1 / open_gop=0 / weightp=2 / keyint=240 / keyint_min=23 / scenecut=40 / intra_refresh=0 / rc=2pass / mbtree=0 / bitrate=9737 / ratetol=1.0 / qcomp=0.70 / qpmin=0 / qpmax=69 / qpstep=4 / cplxblur=20.0 / qblur=0.5 / ip_ratio=1.30 / pb_ratio=1.30 / aq=3:0.70
Язык                                     : Английский
Default                                  : Да
Forced                                   : Нет

Аудио #1
Идентификатор                            : 2
Формат                                   : AC-3
Формат/Информация                        : Audio Coding 3
Коммерческое название                    : Dolby Digital
Идентификатор кодека                     : A_AC3
Продолжительность                        : 51 м. 41 с.
Вид битрейта                             : Постоянный
Битрейт                                  : 640 Кбит/сек
Каналы                                   : 6 каналов
Channel layout                           : L R C LFE Ls Rs
Частота                                  : 48,0 КГц
Частота кадров                           : 31,250 кадров/сек (1536 SPF)
Битовая глубина                          : 16 бит
Метод сжатия                             : С потерями
Размер потока                            : 237 Мбайт (5%)
Заголовок                                : MVO[СВ студия]
Язык                                     : Русский
Service Kind                             : Complete Main
Default                                  : Нет
Forced                                   : Нет

Аудио #2
Идентификатор                            : 3
Формат                                   : AC-3
Формат/Информация                        : Audio Coding 3
Коммерческое название                    : Dolby Digital
Идентификатор кодека                     : A_AC3
Продолжительность                        : 51 м. 41 с.
Вид битрейта                             : Постоянный
Битрейт                                  : 640 Кбит/сек
Каналы                                   : 6 каналов
Channel layout                           : L R C LFE Ls Rs
Частота                                  : 48,0 КГц
Частота кадров                           : 31,250 кадров/сек (1536 SPF)
Битовая глубина                          : 16 бит
Метод сжатия                             : С потерями
Размер потока                            : 237 Мбайт (5%)
Заголовок                                : AVO [Д.Есарев]
Язык                                     : Русский
Service Kind                             : Complete Main
Default                                  : Нет
Forced                                   : Нет

Аудио #3
Идентификатор                            : 4
Формат                                   : AC-3
Формат/Информация                        : Audio Coding 3
Коммерческое название                    : Dolby Digital
Идентификатор кодека                     : A_AC3
Продолжительность                        : 51 м. 41 с.
Вид битрейта                             : Постоянный
Битрейт                                  : 640 Кбит/сек
Каналы                                   : 6 каналов
Channel layout                           : L R C LFE Ls Rs
Частота                                  : 48,0 КГц
Частота кадров                           : 31,250 кадров/сек (1536 SPF)
Битовая глубина                          : 16 бит
Метод сжатия                             : С потерями
Размер потока                            : 237 Мбайт (5%)
Заголовок                                : Dub+AVO
Язык                                     : Русский
Service Kind                             : Complete Main
Default                                  : Нет
Forced                                   : Нет

Аудио #4
Идентификатор                            : 5
Формат                                   : AC-3
Формат/Информация                        : Audio Coding 3
Коммерческое название                    : Dolby Digital
Идентификатор кодека                     : A_AC3
Продолжительность                        : 51 м. 41 с.
Вид битрейта                             : Постоянный
Битрейт                                  : 448 Кбит/сек
Каналы                                   : 6 каналов
Channel layout                           : L R C LFE Ls Rs
Частота                                  : 48,0 КГц
Частота кадров                           : 31,250 кадров/сек (1536 SPF)
Битовая глубина                          : 16 бит
Метод сжатия                             : С потерями
Размер потока                            : 166 Мбайт (4%)
Язык                                     : Английский
Service Kind                             : Complete Main
Default                                  : Нет
Forced                                   : Нет

Текст
Идентификатор                            : 6
Формат                                   : UTF-8
Идентификатор кодека                     : S_TEXT/UTF8
Идентификатор кодека/Информация          : UTF-8 Plain Text
Заголовок                                : SDH
Язык                                     : Английский
Default                                  : Нет
Forced                                   : Нет

Меню
00:00:00.000                             : :Opening Credits
00:03:57.313                             : :Chapter Two: Minnie's Haberdashery / Галантерея Минни
00:47:20.130                             : :Final Credits



Скриншоты:
[+] Всего файлов в раздаче - 4:
The.Hateful.Eight.2015.Extended.3.WEB-DLRip.1080p.HDReactor.mkv4.37 GB
The.Hateful.Eight.2015.Extended.4.WEB-DLRip.1080p.HDReactor.mkv4.37 GB
The.Hateful.Eight.2015.Extended.2.WEB-DLRip.1080p.HDReactor.mkv4.37 GB
The.Hateful.Eight.2015.Extended.1.WEB-DLRip.1080p.HDReactor.mkv4.37 GB

Показать еще раздачи по запросу омерзительная:
2016-07-25 U Омерзительная восьмерка / The Hateful Eight (2015) BDRip-AVC от HELLYWOOD | Лицензия 2.92 GB ↑ 447 ↓ 27
2016-05-16 U Омерзительная восьмерка / The Hateful Eight (2015) BDRip 1080p от HDReactor | D, А 3К11.65 GB ↑ 65533 ↓ 617
2016-05-13 U Омерзительная восьмерка / The Hateful Eight (2015) BDRip 1080p от ExKinoRay | Лицензия, А 23.19 GB ↑ 145 ↓ 73
2016-05-13 U Омерзительная восьмерка / The Hateful Eight (2015) BDRip 720p | D, A | Лицензия 12.47 GB ↑ 67 ↓ 26
2016-05-12 U Омерзительная восьмерка / The Hateful Eight (2015) BDRip-AVC от New-Team | Лицензия 1.46 GB ↑ 174 ↓ 15
2016-05-12 U Омерзительная восьмерка / The Hateful Eight (2015) BDRip от Twi7ter | Лицензия 1К1.46 GB ↑ 207 ↓ 42
2016-05-12 U Омерзительная восьмерка / The Hateful Eight (2015) BDRip 1080p | D, A | Лицензия 18.95 GB ↑ 158 ↓ 132

Отзывы
Зарегистрируйтесь чтобы добавить комментарий.
Обратная связь
Copyleft ©