↑↓Torrent.by
Поиск
Логин: Регистрация
Пароль: Восстановить пароль
Загрузка...

Дэдвуд / Deadwood: The Movie (2019) WEB-DL 720p | FocusStudio, Amedia

Скачать dedvud-deadwood-the-movie-2019-web-dl-720p-focusstudio-amedia.torrent
U Магнитная ссылка Размер: 5.58 GB Раздают: 27 Качают: 8 Добавлен: 2019-06-13 11:21:10
Дэдвуд / Deadwood: The Movie (2019) WEB-DL 720p | FocusStudio, Amedia

Название: Дэдвуд
Оригинальное название: Deadwood: The Movie
Год выхода: 2019
Жанр: вестерн
Режиссер: Даниэль Минахан
В ролях: Тимоти Олифант, Иэн Макшейн, Молли Паркер, Паула Малкомсон, У. Эрл Браун, Дэйтон Калли, Ким Диккенс, Брэд Дуриф, Анна Ганн, Джон Хоукс

О фильме: Выдающийся телевестерн «Дэдвуд», закрытый после третьего сезона, возвращается в полнометражной версии, чтобы наконец довести историю до финала. Исполнитель главной роли Иэн Макшейн вновь сыграл Эла Сверенджена. За режиссуру отвечал Даниэль Минахан («Игра престолов»). Продолжение стало возможным благодаря бессменному шоураннеру Дэвиду Милчу. Он уверен, фильм понравится не только фанатам, но и новичкам. По сюжету герои вестерна встречаются через десять лет после событий третьего сезона, чтобы отпраздновать признание родной Южной Дакоты официальным штатом. Новые времена диктуют свои правила, и в гонке за неизбежными изменениями возродится былое соперничество, а крепкие союзы дадут трещину. Воссоединится практически и вся старая актерская команда: Тимоти Олифант, Молли Паркер, Пола Малкомсон, Джон Хоукс, Анна Ганн, Дэйтон Калли, Брэд Дуриф, Робин Вайгерт, Уильям Сэндерсон, Ким Диккенс и Джеральд Макрейни. К ним примкнул Джейд Петтиджон.

Страна: США
Продолжительность: 01:50:00
Перевод: Профессиональный (многоголосый закадровый) FocusStudio, Профессиональный (многоголосый закадровый) Greb&Creative по заказу Amedia

Файл
Качество: WEB-DL 720p
Формат: Matroska
Видео: 1280x720 at 23.976 fps, MPEG-4 AVC, ~5600 kbps avg
Аудио#1: Russian: 48 kHz, AC3, 3/2 (L,C,R,l,r) + LFE ch, ~640 kbps avg |Многоголосый закадровый, FocusStudio|
Аудио#2: Russian: 48 kHz, AC3, 3/2 (L,C,R,l,r) + LFE ch, ~384 kbps avg |Многоголосый закадровый, Greb&Creative по заказу Amedia|
Аудио#23 English: 48 kHz, E-AC3, 3/2 (L,C,R,l,r) + LFE ch, ~640 kbps avg
Cубтитры: Russian, English (SDH)

***Примечание: Без рекламы
***Релиз: Wilmots@EniaHD
***Внимание! В переводе FocusStudio присутствует ненормативная лексика!


[+] MediaInfo
General
Unique ID                      : 116610772449315526479024209935472649913 (0x57BA6AF834CA8A5FF3F274397FBDE6B9)
Complete name                  : Deadwood.The.Movie.720p.AMZN.WEB-DL.DDP5.1.H.264-EniaHD.mkv
Format                         : Matroska
Format version                 : Version 4 / Version 2
File size                      : 5.58 GiB
Duration                       : 1 h 50 min
Overall bit rate               : 7 250 kb/s
Movie name                     : Deadwood: The Movie (2019) - EniaHD
Encoded date                   : UTC 2019-06-12 12:49:49
Writing application            : mkvmerge v34.0.0 ('Sight and Seen') 64-bit
Writing library                : libebml v1.3.7 + libmatroska v1.5.0

Video
ID                             : 1
Format                         : AVC
Format/Info                    : Advanced Video Codec
Format profile                 : High@L3.1
Format settings                : CABAC / 4 Ref Frames
Format settings, CABAC         : Yes
Format settings, ReFrames      : 4 frames
Codec ID                       : V_MPEG4/ISO/AVC
Duration                       : 1 h 50 min
Bit rate mode                  : Constant
Bit rate                       : 5 583 kb/s
Nominal bit rate               : 6 000 kb/s
Width                          : 1 280 pixels
Height                         : 720 pixels
Display aspect ratio           : 16:9
Frame rate mode                : Constant
Frame rate                     : 23.976 (24000/1001) FPS
Color space                    : YUV
Chroma subsampling             : 4:2:0
Bit depth                      : 8 bits
Scan type                      : Progressive
Bits/(Pixel*Frame)             : 0.253
Stream size                    : 4.29 GiB (77%)
Default                        : Yes
Forced                         : No
Color range                    : Limited
Color primaries                : BT.709
Transfer characteristics       : BT.709
Matrix coefficients            : BT.709

Audio #1
ID                             : 2
Format                         : AC-3
Format/Info                    : Audio Coding 3
Codec ID                       : A_AC3
Duration                       : 1 h 50 min
Bit rate mode                  : Constant
Bit rate                       : 640 kb/s
Channel(s)                     : 6 channels
Channel positions              : Front: L C R, Side: L R, LFE
Sampling rate                  : 48.0 kHz
Frame rate                     : 31.250 FPS (1536 SPF)
Bit depth                      : 16 bits
Compression mode               : Lossy
Stream size                    : 504 MiB (9%)
Title                          : FocusStudio
Language                       : Russian
Service kind                   : Complete Main
Default                        : Yes
Forced                         : No

Audio #2
ID                             : 3
Format                         : AC-3
Format/Info                    : Audio Coding 3
Codec ID                       : A_AC3
Duration                       : 1 h 50 min
Bit rate mode                  : Constant
Bit rate                       : 384 kb/s
Channel(s)                     : 6 channels
Channel positions              : Front: L C R, Side: L R, LFE
Sampling rate                  : 48.0 kHz
Frame rate                     : 31.250 FPS (1536 SPF)
Bit depth                      : 16 bits
Compression mode               : Lossy
Stream size                    : 302 MiB (5%)
Title                          : Greb&Creative
Language                       : Russian
Service kind                   : Complete Main
Default                        : No
Forced                         : No

Audio #3
ID                             : 4
Format                         : E-AC-3
Format/Info                    : Enhanced Audio Coding 3
Codec ID                       : A_EAC3
Duration                       : 1 h 50 min
Bit rate mode                  : Constant
Bit rate                       : 640 kb/s
Channel(s)                     : 6 channels
Channel positions              : Front: L C R, Side: L R, LFE
Sampling rate                  : 48.0 kHz
Frame rate                     : 187.500 FPS (256 SPF)
Compression mode               : Lossy
Stream size                    : 504 MiB (9%)
Title                          : Original
Language                       : English
Service kind                   : Complete Main
Default                        : No
Forced                         : No

Text #1
ID                             : 5
Format                         : UTF-8
Codec ID                       : S_TEXT/UTF8
Codec ID/Info                  : UTF-8 Plain Text
Duration                       : 1 h 47 min
Bit rate                       : 79 b/s
Count of elements              : 1285
Stream size                    : 62.4 KiB (0%)
Language                       : Russian
Default                        : No
Forced                         : No

Text #2
ID                             : 6
Format                         : UTF-8
Codec ID                       : S_TEXT/UTF8
Codec ID/Info                  : UTF-8 Plain Text
Duration                       : 1 h 49 min
Bit rate                       : 63 b/s
Count of elements              : 1904
Stream size                    : 50.8 KiB (0%)
Title                          : SDH
Language                       : English
Default                        : No
Forced                         : No



Скриншоты:
[+] Всего файлов в раздаче - 1:
Deadwood.The.Movie.720p.AMZN.WEB-DL.DDP5.1.H.264-EniaHD.mkv5.58 GB

Похожие раздачи по запросу - дэдвуд:
2019-06-12 U Дэдвуд / Deadwood (2019) WEB-DLRip от MegaPeer | Amedia 1.46 GB ↑ 67 ↓ 19
2019-06-12 U Дэдвуд / Deadwood (2019) WEB-DL 1080p | Amedia 8.07 GB ↑ 97 ↓ 33
2019-06-03 U Дэдвуд / Deadwood (2019) WEB-DLRip от Scarabey | Amedia 1.44 GB ↑ 83 ↓ 25
2019-06-02 U Дэдвуд / Deadwood (2019) WEB-DLRip от MegaPeer | Amedia 1.46 GB ↑ 314 ↓ 100
2019-06-01 U Дэдвуд / Deadwood: The Movie (2019) WEB-DL 720p | Amedia 5.08 GB ↑ 284 ↓ 275
2019-06-01 U Дэдвуд / Deadwood (2019) WEB-DL 1080p | Amedia 8.07 GB ↑ 527 ↓ 270

Отзывы
Зарегистрируйтесь чтобы добавить комментарий.
Обратная связь
Copyleft ©