↑↓torrent.by
Поиск
Логин: Регистрация
Пароль: Восстановить пароль

Покемон. Детектив Пикачу / Pokemon Detective Pikachu (2019) HDRip | P

Скачать pokemon-detektiv-pikachu-detective-2019-hdrip-p.torrent
U Магнитная ссылка Размер: 1.46 GB Раздают: 503 Качают: 37 Добавлен: 2019-06-14 04:36:59
Покемон. Детектив Пикачу / Pokemon Detective Pikachu (2019) HDRip | P

Название: Покемон. Детектив Пикачу
Оригинальное название: Pokemon Detective Pikachu
Год выхода: 2019
Жанр:  Фантастика, фэнтези, детектив, приключения, семейный
Режиссер: Роб Леттерман
В ролях: Райан Рейнольдс, Джастис Смит, Кэтрин Ньютон, Билл Найи, Кэн Ватанабэ, Крис Гир, Сьюки Уотерхаус, Джозетт Саймон, Алехандро Де Меса, Рита Ора

О фильме:
История начинается с таинственного исчезновения частного детектива экстра- класса Гарри Гудмана, расследовать которое предстоит его 21-летнему сыну Тиму. Помощь в расследовании ему окажет бывший партнер отца, детектив Пикачу - уморительный, остроумный и обаятельный сыщик, который является загадкой даже для себя самого. Обнаружив, что они каким-то фантастическим образом способны общаться друг с другом, Тим и Пикачу объединяют усилия в захватывающем расследовании этой запутанной истории. В погоне за уликами по неоновым улицам Райм Сити - современного разросшегося мегаполиса, где люди и покемоны живут бок о бок в гиперреалистичном мире игрового экшна, - они встречают самых разнообразных покемонов и раскрывают ужасный заговор, который способен разрушить это мирное сосуществование и стать угрозой для всей вселенной покемонов.

Страна: США, Япония
Студия: Legendary Entertainment, The Pokemon Company, Toho Company
Продолжительность: 01:37:21
Перевод: Профессиональный (многоголосый, закадровый) HDrezka Studio

РЕКЛАМЫ НЕТ

Файл
Формат: AVI
Качество: HDRip
Видео: 720x304, XviD 67, 24.00 fps, ~1938 kbps
Звук: AC3 2.0, 48.0 kHz, 192 kbps


[+] M/I
General
Complete name               : Pokemon Detective Pikachu.(2019).HDRip.[-=DoMiNo=-].avi
Format                      : AVI
Format/Info                 : Audio Video Interleave
Format profile              : OpenDML
File size                   : 1.46 GiB
Duration                    : 1 h 37 min
Overall bit rate            : 2 142 kb/s

Video
ID                          : 0
Format                      : MPEG-4 Visual
Format profile              : Advanced Simple@L5
Format settings             : BVOP2 / Custom Matrix
Format settings, BVOP       : 2
Format settings, QPel       : No
Format settings, GMC        : No warppoints
Format settings, Matrix     : Custom
Codec ID                    : XVID
Codec ID/Hint               : XviD
Duration                    : 1 h 37 min
Bit rate                    : 1 938 kb/s
Width                       : 720 pixels
Height                      : 304 pixels
Display aspect ratio        : 2.40:1
Frame rate                  : 24.000 FPS
Color space                 : YUV
Chroma subsampling          : 4:2:0
Bit depth                   : 8 bits
Scan type                   : Progressive
Compression mode            : Lossy
Bits/(Pixel*Frame)          : 0.369
Stream size                 : 1.32 GiB (90%)
Writing library             : XviD 67

Audio
ID                          : 1
Format                      : AC-3
Format/Info                 : Audio Coding 3
Commercial name             : Dolby Digital
Codec ID                    : 2000
Duration                    : 1 h 37 min
Bit rate mode               : Constant
Bit rate                    : 192 kb/s
Channel(s)                  : 2 channels
Channel layout              : L R
Sampling rate               : 48.0 kHz
Frame rate                  : 31.250 FPS (1536 SPF)
Bit depth                   : 16 bits
Compression mode            : Lossy
Stream size                 : 134 MiB (9%)
Alignment                   : Aligned on interleaves
Interleave, duration        : 32  ms (0.77 video frame)
Service kind                : Complete Main



Скриншоты:
[+] Всего файлов в раздаче - 1:
Pokemon Detective Pikachu.(2019).HDRip.[-=DoMiNo=-].avi1.46 GB

Похожие раздачи по запросу - покемон:
2019-07-26 U Покемон. Детектив Пикачу / Pokémon Detective Pikachu (2019) BDRip-HEVC 720p | D | Лицензия 3.50 GB ↑ 294 ↓ 24
2019-07-24 U Покемон. Детектив Пикачу / Pokémon Detective Pikachu (2019) BDRip 1080p от селезень | D, P | Лицензия 8.37 GB ↑ 2286 ↓ 974

Отзывы
Зарегистрируйтесь чтобы добавить комментарий.
Обратная связь
Copyleft ©