↑↓Torrent.by
Поиск
Логин: Регистрация
Пароль: Восстановить пароль
Загрузка...

Тайное царство: Грибы, определившие наш мир / The Kingdom: How Fungi Made Our World (2018) HDTV 1080i | P

Скачать taynoe-carstvo-griby-opredelivshie-nash-mir-the-kingdom-how-fungi-made-our-world-2018-hdtv-1080i-p.torrent
U Магнитная ссылка Размер: 2.76 GB Раздают: 236 Качают: 91 Добавлен: 2019-06-14 19:20:53
Тайное царство: Грибы, определившие наш мир / The Kingdom: How Fungi Made Our World (2018) HDTV  1080i | P

Название: Тайное царство: Грибы, определившие наш мир
Оригинальное название: The Kingdom: How Fungi Made Our World
Год выхода: 2018
Жанр: Документальный, познавательный
Режиссер: Аннамария Талас

О фильме:
Всей сушей правит одно скрытое от глаз царство. Грибы можно встретить не только в лесу – они повсюду: на наших ногах, в наших легких, чего бы вы не коснулись и куда бы вы не пошли. Окунитесь в мир неизведанных и могучих древних организмов.


Страна: Канада
Студия: Real to Reel Productions, Smith & Nasht
Продолжительность: 00:52:14
Перевод: Профессиональный (многоголосый, закадровый) 1ТВЧ

Файл
Кодек: AVC/H.264
Качество: HDTV  1080i
Видео: 1920x1080 (16:9), 25 fps, AVC (Н.264), Main@L4, ~ 6966 kbps, 25fps, 0.134 bit/pixel
Звук: Русский 48.0 KHz, AC3 6 ch (Front: L C R, Side: L R, LFE) ch, ~448.00 kbps avg

Семпл

Релиз от: kyba
[+] MediaInfo
Complete name               : F:НаладкиТайное царство_ Грибы, определившие наш мир.mkv
Format                      : Matroska
Format version              : Version 4 / Version 2
File size                   : 2.76 GiB
Duration                    : 52 min 14 s
Overall bit rate            : 7 565 kb/s
Encoded date                : UTC 2019-06-12 18:52:45
Writing application         : mkvmerge v6.6.0 ('The Edge Of The In Between') built on Dec  1 2013 17:55:00
Writing library             : libebml v1.3.0 + libmatroska v1.4.1

Video
ID                          : 1
Format                      : AVC
Format/Info                 : Advanced Video Codec
Format profile              : Main@L4
Format settings             : CABAC / 3 Ref Frames
Format settings, CABAC      : Yes
Format settings, ReFrames   : 3 frames
Codec ID                    : V_MPEG4/ISO/AVC
Duration                    : 52 min 14 s
Bit rate                    : 6 966 kb/s
Width                       : 1 920 pixels
Height                      : 1 080 pixels
Display aspect ratio        : 16:9
Frame rate mode             : Constant
Frame rate                  : 25.000 FPS
Color space                 : YUV
Chroma subsampling          : 4:2:0
Bit depth                   : 8 bits
Scan type                   : Interlaced
Scan type, store method     : Separated fields
Scan order                  : Top Field First
Bits/(Pixel*Frame)          : 0.134
Stream size                 : 2.54 GiB (92%)
Default                     : Yes
Forced                      : No
Color range                 : Limited
Color primaries             : BT.709
Transfer characteristics    : BT.709
Matrix coefficients         : BT.709

Audio
ID                          : 2
Format                      : AC-3
Format/Info                 : Audio Coding 3
Codec ID                    : A_AC3
Duration                    : 52 min 14 s
Bit rate mode               : Constant
Bit rate                    : 448 kb/s
Channel(s)                  : 6 channels
Channel positions           : Front: L C R, Side: L R, LFE
Sampling rate               : 48.0 kHz
Frame rate                  : 31.250 FPS (1536 SPF)
Bit depth                   : 16 bits
Compression mode            : Lossy
Stream size                 : 167 MiB (6%)
Language                    : Russian
Service kind                : Complete Main
Default                     : Yes
Forced                      : No



Скриншоты:
[+] Всего файлов в раздаче - 1:
Тайное царство_ Грибы, определившие наш мир.mkv2.76 GB

Показать еще раздачи по запросу тайное:
2019-07-20 U Предвестники беды: откуда у зверей тайное знание? (2019) SATRip 1.21 GB ↑ 37 ↓ 16
2019-04-10 U Астерикс и тайное зелье / Astérix: Le secret de la potion magique (2018) BDRip от ExKinoRay | iTunes 1.42 GB ↑ 39 ↓ 20
2019-04-09 U Астерикс и тайное зелье / Astérix: Le secret de la potion magique (2018) HDRip от Scarabey | iTunes 1.41 GB ↑ 133 ↓ 35
2019-04-07 U Астерикс и тайное зелье / Astérix: Le secret de la potion magique (2018) BDRip-AVC от HELLYWOOD | iTunes 1.42 GB ↑ 233 ↓ 27
2019-04-07 U Астерикс и тайное зелье / Asterix: Le secret de la potion magique (2018) HDRip от Portablius | iTunes 745.73 MB ↑ 146 ↓ 25
2019-04-06 U Астерикс и тайное зелье / Asterix: Le secret de la potion magique (2018) BDRemux 1080p от селезень | iTunes 20.41 GB ↑ 183 ↓ 118
2019-04-06 U Астерикс и тайное зелье / Astérix: Le secret de la potion magique (2018) BDRip-AVC от HELLYWOOD | iTunes 2.14 GB ↑ 238 ↓ 63

Отзывы
igortrista
Грибы-это тема.

Зарегистрируйтесь чтобы добавить комментарий.
Обратная связь
Copyleft ©