↑↓Torrent.by
Поиск
Логин: Регистрация
Пароль: Восстановить пароль
Загрузка...

Как приручить дракона 3 / How to Train Your Dragon: The Hidden World (2019) BDRip 1080p от qqss44 & MegaPeer | Лицензия

Скачать kak-priruchit-drakona-3-how-to-train-your-dragon-the-hidden-world-2019-bdrip-1080p-ot-qqss44-megapeer-licenziya.torrent
U Магнитная ссылка Размер: 5.55 GB Раздают: 63 Качают: 11 Добавлен: 2019-06-15 08:40:56
Как приручить дракона 3 / How to Train Your Dragon: The Hidden World (2019) BDRip 1080p от qqss44 & MegaPeer | Лицензия

Анонсы 1080p от qqss44

Информация о фильме
Название: Как приручить дракона 3
Оригинальное название: How to Train Your Dragon: The Hidden World
Год выпуска: 2019
Жанр:  Мультфильм, фэнтези, боевик, комедия, приключения, семейный, полнометражный
Режиссер: Дин ДеБлуа
В ролях: Кейт Бланшетт, Джерард Батлер, Джона Хилл, Кит Харингтон, Кристен Уиг, Джей Барушель, Кристофер Минц-Плассе, Америка Феррера, Оулавюр Дарри Оулафссон, Ф. Мюррэй Абрахам, Крэйг Фергюсон, Джастин Руппл

О фильме:
Когда-то викинги жили в гармонии с драконами. В те времена они делили радость, горе… и последние штаны. Казалось, что так будет всегда, но появление загадочной Дневной Фурии изменило жизнь острова. И теперь Иккинг и Беззубик столкнутся с безжалостным охотником на драконов, жаждущим уничтожить все, что им дорого.

Страна: США
Студия: DreamWorks Animation, Mad Hatter Entertainment
Продолжительность: 01:44:05
Перевод: Дублированный | Лицензия Blu-Ray

Файл
Формат: MKV, BDRip 1080p
Видео: MPEG-4 AVC, 7000 Кбит/с, 1920x816
Aудио#1: [RUS] AC3 | 48 KHz | 5.1 (Front: L С R Side: L R) + LFE | ~640 kbps
Субтитры: русские полные
Релиз от:


[+] МИ


Общее
Уникальный идентификатор: 227160204168913740616324024520907454325 (0xAAE576C4A770E61C8BA2A66683547775)
Полное имя: H:How.to.Train.Your.Dragon.The.Hidden.World.(2019).BDRip-1080p.MegaPeer.(qqss44).mkv
Формат: Matroska
Версия формата: Version 2
Размер файла: 5,55 Гбайт
Продолжительность: 1 ч. 44 м.
Общий поток: 7635 Кбит/сек
Название фильма: How.to.Train.Your.Dragon.The.Hidden.World.(2019).BDRip-1080p.MegaPeer.(qqss44)
Дата кодирования: UTC 2019-06-13 00:32:38
Программа кодирования: mkvmerge v7.8.0 ('River Man') 32bit built on Apr 3 2015 12:11:22
Библиотека кодирования: libebml v1.3.1 + libmatroska v1.4.2

Видео
Идентификатор: 1
Формат: AVC
Формат/Информация: Advanced Video Codec
Профиль формата: High@L4.1
Параметр CABAC формата: Да
Параметр ReFrames формата: 5 кадров
Идентификатор кодека: V_MPEG4/ISO/AVC
Продолжительность: 1 ч. 44 м.
Битрейт: 7000 Кбит/сек
Ширина: 1920 пикселей
Высота: 816 пикселей
Соотношение сторон: 2,35:1
Режим частоты кадров: Постоянный
Частота кадров: 23,976 (24000/1001) кадра/сек
Цветовое пространство: YUV
Субдискретизация насыщенности: 4:2:0
Битовая глубина: 8 бит
Тип развёртки: Прогрессивная
Бит/(Пиксели*Кадры): 0.186
Размер потока: 4,98 Гбайт (90%)
Библиотека кодирования: x264 core 152 r2851 ba24899
Настройки программы: cabac=1 / ref=5 / deblock=1:-3:-3 / analyse=0x3:0x113 / me=umh / subme=11 / psy=1 / psy_rd=1.00:0.00 / mixed_ref=1 / me_range=32 / chroma_me=1 / trellis=2 / 8x8dct=1 / cqm=0 / deadzone=21,11 / fast_pskip=0 / chroma_qp_offset=-2 / threads=12 / lookahead_threads=2 / sliced_threads=0 / nr=0 / decimate=0 / interlaced=0 / bluray_compat=0 / constrained_intra=0 / bframes=9 / b_pyramid=2 / b_adapt=2 / b_bias=0 / direct=3 / weightb=1 / open_gop=0 / weightp=2 / keyint=250 / keyint_min=23 / scenecut=40 / intra_refresh=0 / rc_lookahead=40 / rc=2pass / mbtree=0 / bitrate=7000 / ratetol=1.0 / qcomp=0.70 / qpmin=0 / qpmax=69 / qpstep=4 / cplxblur=20.0 / qblur=0.5 / vbv_maxrate=50000 / vbv_bufsize=62500 / nal_hrd=none / filler=0 / ip_ratio=1.40 / pb_ratio=1.30 / aq=3:0.80
Язык: English
Default: Да
Forced: Нет

Аудио
Идентификатор: 2
Формат: AC-3
Формат/Информация: Audio Coding 3
Расширение режима: CM (complete main)
Параметр Endianness формата: Big
Идентификатор кодека: A_AC3
Продолжительность: 1 ч. 44 м.
Вид битрейта: Постоянный
Битрейт: 640 Кбит/сек
Каналы: 6 каналов
Расположение каналов: Front: L C R, Side: L R, LFE
Частота: 48,0 КГц
Частота кадров: 31,250 кадров/сек (1536 spf)
Метод сжатия: С потерями
Размер потока: 477 Мбайт (8%)
Язык: Russian
Default: Да
Forced: Нет

Текст
Идентификатор: 3
Формат: UTF-8
Идентификатор кодека: S_TEXT/UTF8
Идентификатор кодека/Информация: UTF-8 Plain Text
Заголовок: Full
Язык: Russian
Default: Нет
Forced: Нет

Меню
00:00:00.000: en:Chapter 1
00:05:13.521: en:Chapter 2
00:10:26.834: en:Chapter 3
00:14:52.224: en:Chapter 4
00:20:33.065: en:Chapter 5
00:24:38.685: en:Chapter 6
00:28:40.885: en:Chapter 7
00:31:10.118: en:Chapter 8
00:37:35.127: en:Chapter 9
00:44:38.550: en:Chapter 10
00:47:53.579: en:Chapter 11
00:53:11.021: en:Chapter 12
00:57:36.286: en:Chapter 13
01:01:25.056: en:Chapter 14
01:08:55.923: en:Chapter 15
01:14:17.703: en:Chapter 16
01:19:31.141: en:Chapter 17
01:23:23.289: en:Chapter 18
01:28:24.716: en:Chapter 19
01:33:53.377: en:Chapter 20




Скриншоты:
[+] Всего файлов в раздаче - 1:
How.to.Train.Your.Dragon.The.Hidden.World.(2019).BDRip-1080p.MegaPeer.(qqss44).mkv5.55 GB

Показать еще раздачи по запросу приручить:
2019-06-18 U Как приручить дракона 3 / How to Train Your Dragon: The Hidden World (2019) BDRip 720p от Scarabey | Лицензия 4.15 GB ↑ 60 ↓ 15
2019-06-15 U Как приручить дракона 3 / How to Train Your Dragon: The Hidden World (2019) HDRip от Scarabey | Лицензия 1.45 GB ↑ 76 ↓ 16
2019-06-13 U Как приручить дракона 3 / How to Train Your Dragon: The Hidden World (2019) HDRip от Scarabey | Лицензия 743.92 MB ↑ 69 ↓ 7
2019-06-12 U Как приручить дракона 3 / How to Train Your Dragon: The Hidden World (2019) BDRip-AVC от OlLanDGroup | D, P | Лицензия 2.15 GB ↑ 34 ↓ 9
2019-06-12 U Как приручить дракона 3 / How to Train Your Dragon: The Hidden World (2019) BDRip от Twister & ExKinoRay | Лицензия 1.46 GB ↑ 26 ↓ 10
2019-06-11 U Как приручить дракона 3 / How to Train Your Dragon: The Hidden World (2019) BDRip 1080p от селезень | D, P | Лицензия 8.29 GB ↑ 135 ↓ 64
2019-06-11 U Как приручить дракона 3 / How to Train Your Dragon: The Hidden World (2019) BDRip от MegaPeer | Лицензия 1.46 GB ↑ 63 ↓ 15

Отзывы
Зарегистрируйтесь чтобы добавить комментарий.
Обратная связь
Copyleft ©