↑↓Torrent.by
Поиск
Логин: Регистрация
Пароль: Восстановить пароль
Загрузка...

Пилигрим (2018) WEB-DL 1080p | iTunes

Скачать piligrim-2018-web-dl-1080p-itunes.torrent
U Магнитная ссылка Размер: 3.33 GB Раздают: 438 Качают: 289 Добавлен: 2019-06-15 13:34:51
Пилигрим (2018) WEB-DL 1080p | iTunes

Название: Пилигрим
Год выхода: 2018
Жанр:  Триллер
Режиссер: Александр Баршак
Актеры: Игорь Петренко, Елена Север, Алексей Серебряков, Владимир Ильин, Татьяна Васильева, Анна Банщикова, Дмитрий Мухамадеев, Дмитрий Куличков, Сергей Беляев, Павел Кузьмин

Описание:
В жизни Миры всё замечательно: она — владелица модной галереи, дома ждёт любящий муж. Но однажды на берегу моря находят мужчину с амнезией, который помнит её имя. Никто не знает, кто он. Его нет ни в одной базе данных. Но он знает о ней то, что может знать только очень близкий человек, хотя Мира ни разу в жизни его не видела. Благополучный мир Миры начинает разрушаться, когда выясняется, что неизвестный провёл несколько лет на Ближнем Востоке и за ним идёт настоящая охота.

Производство: Россия / Кинокомпания "Север"
Продолжительность: 01:37:09
Озвучивание: Оригинальное [iTunes]
Субтитры: Отсутствуют

Файл
Формат: MKV (x264)
Качество: WEB-DL 1080p
Видео: x264, ~4525 Кb/s, 1920x806, 24,00 кадра/сек
Аудио: AC3, 384 Kb/s (6 ch)


[+] M/I
General
Unique ID                   : 70719738927401209157024791954453281543 (0x3534205446B5EDB53A906866E86DBB07)
Complete name               : Пилигрим.2019.WEB-DL.1080p.mkv
Format                      : Matroska
Format version              : Version 4
File size                   : 3.33 GiB
Duration                    : 1 h 37 min
Overall bit rate            : 4 911 kb/s
Movie name                  : WEB-DL 1080p | iTunes
Encoded date                : UTC 2019-06-15 07:03:47
Writing application         : mkvmerge v34.0.0 ('Sight and Seen') 64-bit
Writing library             : libebml v1.3.7 + libmatroska v1.5.0
Attachments                 : poster.jpg / poster.jpg

Video
ID                          : 1
Format                      : AVC
Format/Info                 : Advanced Video Codec
Format profile              : High@L4
Format settings             : CABAC / 5 Ref Frames
Format settings, CABAC      : Yes
Format settings, Reference  : 5 frames
Codec ID                    : V_MPEG4/ISO/AVC
Duration                    : 1 h 37 min
Bit rate                    : 4 525 kb/s
Width                       : 1 920 pixels
Height                      : 806 pixels
Display aspect ratio        : 2.40:1
Frame rate mode             : Constant
Frame rate                  : 24.000 FPS
Color space                 : YUV
Chroma subsampling          : 4:2:0
Bit depth                   : 8 bits
Scan type                   : Progressive
Bits/(Pixel*Frame)          : 0.122
Stream size                 : 3.07 GiB (92%)
Title                       : Пилигрим (2018)
Language                    : English
Default                     : Yes
Forced                      : No
Color range                 : Limited
Color primaries             : BT.709
Transfer characteristics    : BT.709
Matrix coefficients         : BT.709

Audio
ID                          : 2
Format                      : AC-3
Format/Info                 : Audio Coding 3
Commercial name             : Dolby Digital
Codec ID                    : A_AC3
Duration                    : 1 h 37 min
Bit rate mode               : Constant
Bit rate                    : 384 kb/s
Channel(s)                  : 6 channels
Channel layout              : L R C LFE Ls Rs
Sampling rate               : 48.0 kHz
Frame rate                  : 31.250 FPS (1536 SPF)
Bit depth                   : 16 bits
Compression mode            : Lossy
Stream size                 : 267 MiB (8%)
Title                       : RUS_[iTunes]
Language                    : Russian
Service kind                : Complete Main
Default                     : Yes
Forced                      : No

Menu
00:00:00.000                : en:Глава 01
00:07:30.000                : en:Глава 02
00:15:00.000                : en:Глава 03
00:22:30.000                : en:Глава 04
00:30:00.000                : en:Глава 05
00:37:30.000                : en:Глава 06
00:45:00.000                : en:Глава 07
00:52:30.000                : en:Глава 08
01:00:00.000                : en:Глава 09
01:07:30.000                : en:Глава 10
01:15:00.000                : en:Глава 11
01:22:30.000                : en:Глава 12
01:30:00.000                : en:Глава 13



Скриншоты:
[+] Всего файлов в раздаче - 1:
Пилигрим.2019.WEB-DL.1080p.mkv3.33 GB

Похожие раздачи по запросу - пилигрим:
2019-06-17 U Пилигрим (2018) WEB-DLRip от Scarabey | iTunes 1.44 GB ↑ 80 ↓ 47
2019-06-16 U Пилигрим (2018) WEB-DLRip от Generalfilm | КПК | iTunes 369.09 MB ↑ 55 ↓ 4
2019-06-16 U Пилигрим (2018) WEB-DLRip-AVC | iTunes 743.07 MB ↑ 139 ↓ 10
2019-06-16 U Пилигрим (2018) WEB-DLRip от Generalfilm | iTunes 1.45 GB ↑ 127 ↓ 39
2019-06-15 U Пилигрим (2018) WEB-DLRip-AVC от Files-x | iTunes 1.37 GB ↑ 402 ↓ 242
2019-06-15 U Пилигрим (2018) WEB-DLRip 743.44 MB ↑ 371 ↓ 98

Отзывы
Зарегистрируйтесь чтобы добавить комментарий.
Обратная связь
Copyleft ©