↑↓Torrent.by
Поиск
Логин: Регистрация
Пароль: Восстановить пароль
Загрузка...

Пилигрим (2018) WEB-DLRip

Скачать piligrim-2018-web-dlrip.torrent
U Магнитная ссылка Размер: 743.44 MB Раздают: 366 Качают: 98 Добавлен: 2019-06-15 13:34:55
Пилигрим (2018) WEB-DLRip

Название: Пилигрим
Год выхода: 2018
Жанр: Триллер
Режиссер: Александр Баршак
В ролях: Игорь Петренко, Елена Север, Алексей Серебряков, Владимир Ильин, Татьяна Васильева, Анна Банщикова, Дмитрий Мухамадеев, Дмитрий Куличков, Сергей Беляев, Павел Кузьмин

О фильме:
В жизни Миры всё замечательно: она — владелица модной галереи, дома ждёт любящий муж. Но однажды на берегу моря находят мужчину с амнезией, который помнит её имя. Никто не знает, кто он. Его нет ни в одной базе данных. Но он знает о ней то, что может знать только очень близкий человек, хотя Мира ни разу в жизни его не видела. Благополучный мир Миры начинает разрушаться, когда выясняется, что неизвестный провёл несколько лет на Ближнем Востоке и за ним идёт настоящая охота.

Страна: Россия
Студия: Север, Чайка Синема
Продолжительность: 01:37:09
Перевод: Не требуется

Файл
Кодек: AVI
Качество: WEB-DLRip
Видео: 688x288 (2.39:1), 24.000 fps, XviD build 73 ~932 kbps avg, 0.20 bit/pixel
Звук: 48 kHz, MPEG Layer 3, 2 ch, ~128.00 kbps avg
[+] MI


MediaInfo
Формат : AVI
Формат/Информация : Audio Video Interleave
Размер файла : 743 Мбайт
Продолжительность : 1 ч. 37 м.
Общий поток : 1070 Кбит/сек
Название фильма : Пилигрим_2018_WEB-DLRip
Программа кодирования : VirtualDubMod 1.5.10.3 | (build 2550/release)
Авторское право : порошков

Видео
Идентификатор : 0
Формат : MPEG-4 Visual
Профиль формата : Advanced Simple@L5
Настройки формата : BVOP1 / Custom Matrix
Параметр BVOP формата : 1
Параметр QPel формата : Нет
Параметр GMC формата : Без точки перехода
Параметр матрицы формата : Выборочная
Идентификатор кодека : XVID
Идентификатор кодека/Подсказка : XviD
Продолжительность : 1 ч. 37 м.
Битрейт : 932 Кбит/сек
Ширина : 688 пикселей
Высота : 288 пикселей
Соотношение сторон : 2,40:1
Частота кадров : 24,000 кадра/сек
Цветовое пространство : YUV
Субдискретизация насыщенности : 4:2:0
Битовая глубина : 8 бит
Тип развёртки : Прогрессивная
Метод сжатия : С потерями
Бит/(Пиксели*Кадры) : 0.196
Размер потока : 648 Мбайт (87%)
Библиотека кодирования : XviD 73

Аудио
Идентификатор : 1
Формат : MPEG Audio
Версия формата : Version 1
Профиль формата : Layer 3
Идентификатор кодека : 55
Идентификатор кодека/Подсказка : MP3
Продолжительность : 1 ч. 37 м.
Вид битрейта : Постоянный
Битрейт : 128 Кбит/сек
Каналы : 2 канала
Частота : 48,0 КГц
Частота кадров : 41,667 кадра/сек (1152 SPF)
Метод сжатия : С потерями
Размер потока : 89,0 Мбайт (12%)
Выравнивание : Соединение по промежуткам
Продолжительность промежутка : 42 мс. (1,00 видеокадр)
Время предзагрузки промежутка : 504 мс.
Библиотека кодирования : LAME3.99r
Настройки программы : -m s -V 4 -q 2 -lowpass 17 -b 128



Скриншоты:
[+] Всего файлов в раздаче - 1:
Пилигрим_2018_WEB-DLRip.avi743.44 MB

Похожие раздачи по запросу - пилигрим:
2019-06-17 U Пилигрим (2018) WEB-DLRip от Scarabey | iTunes 1.44 GB ↑ 80 ↓ 47
2019-06-16 U Пилигрим (2018) WEB-DLRip от Generalfilm | КПК | iTunes 369.09 MB ↑ 54 ↓ 4
2019-06-16 U Пилигрим (2018) WEB-DLRip-AVC | iTunes 743.07 MB ↑ 136 ↓ 10
2019-06-16 U Пилигрим (2018) WEB-DLRip от Generalfilm | iTunes 1.45 GB ↑ 125 ↓ 39
2019-06-15 U Пилигрим (2018) WEB-DLRip-AVC от Files-x | iTunes 1.37 GB ↑ 402 ↓ 242
2019-06-15 U Пилигрим (2018) WEB-DL 1080p | iTunes 3.33 GB ↑ 436 ↓ 289

Отзывы
Зарегистрируйтесь чтобы добавить комментарий.
Обратная связь
Copyleft ©