↑↓Torrent.by
Поиск
Логин: Регистрация
Пароль: Восстановить пароль
Загрузка...

Счастливого нового дня смерти / Happy Death Day 2U (2019) BDRip 1080p от селезень | Лицензия

Скачать schastlivogo-novogo-dnya-smerti-happy-death-day-2u-2019-bdrip-1080p-ot-selezen-licenziya.torrent
U Магнитная ссылка Размер: 13.07 GB Раздают: 62 Качают: 36 Добавлен: 2019-06-15 13:36:08
Счастливого нового дня смерти / Happy Death Day 2U (2019) BDRip 1080p от селезень | Лицензия

Название: Счастливого нового дня смерти
Оригинальное название: Happy Death Day 2U
Год выхода: 2019
Жанр: Ужасы, триллер, детектив
Режиссер: Кристофер Лэндон
В ролях: Джессика Рот, Израэль Бруссар, Фи Ву, Сурадж Шарма, Сара Яркин, Рэйчел Мэттьюз, Руби Модин, Стив Зиссис, Чарльз Эйткин, Лаура Клифтон

О фильме: На прошлый день рождения судьба преподнесла ей сомнительный подарок — праздник повторялся снова и снова, а в финале её неизменно убивал маньяк в маске. То ли дело в этом году: какое счастье проснуться с утра пораньше и оказаться в той же самой петле времени! Только теперь с тобой умирают все твои друзья… Смертельная тоска? Нет, бесконечное веселье!

Страна: США
Студия: Blumhouse Productions, Digital Riot Media
Продолжительность: 01:39:56
Перевод: Дублированный | Лицензия

Качество: BDRip 1080p
Видео: MPEG-4 AVC, 1920x802, 16.9 Mbit/s, 23.976 fps
Звук:
Аудио #01: 48 kHz, AC3, 5.1, 768 Kbps | Дублированный | RUS |
Аудио #02: 48 kHz, AC3, 5.1, 448 Kbps | Дублированный | RUS |
Аудио #03: 48 kHz, AC3, 5.1, 640 Kbps | Оригинал |  ENG |
Субтитры: Русские (full), английские

Релиз:


[+] MI
General
Unique ID                   : 292425071559228814394403443433265436913 (0xDBFF052A8D71D7A36ADF23C77B6818F1)
Complete name               : D:Video111Happy.Death.Day.2U.2019.Lic.BDRip.1080p.seleZen.mkv
Format                      : Matroska
Format version              : Version 4
File size                   : 13.1 GiB
Duration                    : 1 h 39 min
Overall bit rate            : 18.7 Mb/s
Movie name                  : Happy Death Day 2U 2019 from селезень
Encoded date                : UTC 2019-06-15 03:45:28
Writing application         : mkvmerge v33.1.0 ('Primrose') 64-bit
Writing library             : libebml v1.3.7 + libmatroska v1.5.0

Video
ID                          : 1
Format                      : AVC
Format/Info                 : Advanced Video Codec
Format profile              : High@L4.1
Format settings             : CABAC / 5 Ref Frames
Format settings, CABAC      : Yes
Format settings, Reference  : 5 frames
Codec ID                    : V_MPEG4/ISO/AVC
Duration                    : 1 h 39 min
Bit rate                    : 16.9 Mb/s
Width                       : 1 920 pixels
Height                      : 802 pixels
Display aspect ratio        : 2.40:1
Frame rate mode             : Constant
Frame rate                  : 23.976 (24000/1001) FPS
Color space                 : YUV
Chroma subsampling          : 4:2:0
Bit depth                   : 8 bits
Scan type                   : Progressive
Bits/(Pixel*Frame)          : 0.457
Stream size                 : 11.8 GiB (90%)
Title                       : playHD
Writing library             : x264 core 157 r2970+47 cae74a0 t_mod_New [0-bit@all X86_64]
Encoding settings           : cabac=1 / ref=5 / deblock=1:-3:-3 / analyse=0x3:0x133 / me=umh / subme=10 / psy=1 / fade_compensate=0.00 / psy_rd=1.05:0.00 / mixed_ref=1 / me_range=32 / chroma_me=1 / trellis=2 / 8x8dct=1 / cqm=0 / deadzone=21,11 / fast_pskip=0 / chroma_qp_offset=-2 / threads=24 / lookahead_threads=4 / sliced_threads=0 / nr=0 / decimate=0 / interlaced=0 / bluray_compat=0 / constrained_intra=0 / fgo=0 / bframes=7 / b_pyramid=2 / b_adapt=2 / b_bias=0 / direct=3 / weightb=1 / open_gop=0 / weightp=2 / keyint=250 / keyint_min=23 / scenecut=40 / intra_refresh=0 / rc_lookahead=60 / rc=crf / mbtree=0 / crf=17.2000 / qcomp=0.60 / qpmin=0:0:0 / qpmax=69:69:69 / qpstep=4 / vbv_maxrate=62500 / vbv_bufsize=78125 / crf_max=0.0 / nal_hrd=none / filler=0 / ip_ratio=1.35 / pb_ratio=1.25 / aq=1:0.85 / aq-sensitivity=10.00 / aq-factor=1.00:1.00:1.00 / aq2=0 / aq3=0
Language                    : English
Default                     : Yes
Forced                      : No

Audio #1
ID                          : 2
Format                      : DTS
Format/Info                 : Digital Theater Systems
Codec ID                    : A_DTS
Duration                    : 1 h 39 min
Bit rate mode               : Constant
Bit rate                    : 768 kb/s
Channel(s)                  : 6 channels
Channel layout              : C L R Ls Rs LFE
Sampling rate               : 48.0 kHz
Frame rate                  : 93.750 FPS (512 SPF)
Bit depth                   : 24 bits
Compression mode            : Lossy
Stream size                 : 549 MiB (4%)
Title                       : Dub [License]
Language                    : Russian
Default                     : Yes
Forced                      : Yes

Audio #2
ID                          : 3
Format                      : AC-3
Format/Info                 : Audio Coding 3
Commercial name             : Dolby Digital
Codec ID                    : A_AC3
Duration                    : 1 h 39 min
Bit rate mode               : Constant
Bit rate                    : 448 kb/s
Channel(s)                  : 6 channels
Channel layout              : L R C LFE Ls Rs
Sampling rate               : 48.0 kHz
Frame rate                  : 31.250 FPS (1536 SPF)
Bit depth                   : 16 bits
Compression mode            : Lossy
Stream size                 : 320 MiB (2%)
Title                       : Dub [License]
Language                    : Russian
Service kind                : Complete Main
Default                     : No
Forced                      : No

Audio #3
ID                          : 4
Format                      : AC-3
Format/Info                 : Audio Coding 3
Commercial name             : Dolby Digital
Codec ID                    : A_AC3
Duration                    : 1 h 39 min
Bit rate mode               : Constant
Bit rate                    : 640 kb/s
Channel(s)                  : 6 channels
Channel layout              : L R C LFE Ls Rs
Sampling rate               : 48.0 kHz
Frame rate                  : 31.250 FPS (1536 SPF)
Bit depth                   : 16 bits
Compression mode            : Lossy
Stream size                 : 457 MiB (3%)
Title                       : Original
Language                    : English
Service kind                : Complete Main
Default                     : No
Forced                      : No

Text #1
ID                          : 5
Format                      : UTF-8
Codec ID                    : S_TEXT/UTF8
Codec ID/Info               : UTF-8 Plain Text
Duration                    : 1 h 33 min
Bit rate                    : 96 b/s
Count of elements           : 1567
Stream size                 : 66.3 KiB (0%)
Title                       : full
Language                    : Russian
Default                     : No
Forced                      : No

Text #2
ID                          : 6
Format                      : UTF-8
Codec ID                    : S_TEXT/UTF8
Codec ID/Info               : UTF-8 Plain Text
Duration                    : 1 h 33 min
Bit rate                    : 64 b/s
Count of elements           : 1604
Stream size                 : 43.9 KiB (0%)
Title                       : full
Language                    : English
Default                     : No
Forced                      : No

Text #3
ID                          : 7
Format                      : UTF-8
Codec ID                    : S_TEXT/UTF8
Codec ID/Info               : UTF-8 Plain Text
Duration                    : 1 h 39 min
Bit rate                    : 67 b/s
Count of elements           : 1868
Stream size                 : 49.5 KiB (0%)
Title                       : SDH
Language                    : English
Default                     : No
Forced                      : No

Menu
00:00:00.000                : en:00:00:00.000
00:07:42.253                : en:00:07:42.253
00:16:01.085                : en:00:16:01.085
00:21:16.066                : en:00:21:16.066
00:24:21.460                : en:00:24:21.460
00:28:44.890                : en:00:28:44.890
00:32:34.661                : en:00:32:34.661
00:37:15.817                : en:00:37:15.817
00:42:02.812                : en:00:42:02.812
00:45:35.107                : en:00:45:35.107
00:48:37.665                : en:00:48:37.665
00:54:27.347                : en:00:54:27.347
01:00:36.341                : en:01:00:36.341
01:06:24.314                : en:01:06:24.314
01:13:19.520                : en:01:13:19.520
01:17:47.079                : en:01:17:47.079
01:21:31.762                : en:01:21:31.762
01:27:36.084                : en:01:27:36.084
01:33:02.994                : en:01:33:02.994
01:35:05.700                : en:01:35:05.700



Скриншоты:
[+] Всего файлов в раздаче - 1:
Happy.Death.Day.2U.2019.Lic.BDRip.1080p.seleZen.mkv13.07 GB

Показать еще раздачи по запросу счастливого:
2019-06-16 U Счастливого нового дня смерти / Happy Death Day 2U (2019) BDRip-AVC от ExKinoRay | Лицензия 2.72 GB ↑ 28 ↓ 8
2019-06-16 U Счастливого нового дня смерти / Happy Death Day 2U (2019) BDRip от Twister & ExKinoRay | Лицензия 1.46 GB ↑ 29 ↓ 5
2019-06-15 U Счастливого нового дня смерти / Happy Death Day 2U (2019) BDRip 720p от селезень | Лицензия 6.26 GB ↑ 58 ↓ 45
2019-06-15 U Счастливого нового дня смерти / Happy Death Day 2U (2019) BDRip от MegaPeer | Лицензия 1.46 GB ↑ 529 ↓ 10
2019-05-11 U Счастливого нового дня смерти / Happy Death Day 2U (2019) BDRip-AVC от ExKinoRay | iTunes 2.67 GB ↑ 69 ↓ 13
2019-05-10 U Счастливого нового дня смерти / Happy Death Day 2U (2019) BDRip от MegaPeer | iTunes 1.42 GB ↑ 1255 ↓ 27
2019-05-07 U Счастливого нового дня смерти / Happy Death Day 2U (2019) HDRip от Scarabey | iTunes 1.40 GB ↑ 52 ↓ 3

Отзывы
Зарегистрируйтесь чтобы добавить комментарий.
Обратная связь
Copyleft ©