↑↓Torrent.by
Поиск
Логин: Регистрация
Пароль: Восстановить пароль
Загрузка...

Загадочное убийство / Murder Mystery (2019) WEB-DL 720p | Пифагор

Скачать zagadochnoe-ubiystvo-murder-mystery-2019-web-dl-720p-pifagor.torrent
U Магнитная ссылка Размер: 2.34 GB Раздают: 177 Качают: 98 Добавлен: 2019-06-15 17:02:35
Загадочное убийство / Murder Mystery (2019) WEB-DL 720p | Пифагор

Название: Загадочное убийство
Оригинальное название: Murder Mystery
Год выхода: 2019
Жанр: Боевик, мелодрама, комедия, детектив
Режиссер: Кайл Ньюачек
В ролях: Дженнифер Энистон, Адам Сэндлер, Джемма Артертон, Люк Эванс, Джеки Сэндлер, Оулавюр Дарри Оулафссон, Джон Кани, Теренс Стэмп, Сиори Куцуна, Элен Кардона, Дэвид Уоллиамс, Адиль Ахтар, Суфе Брэдшоу, Пилар Холлэнд, Хелена Мари Патт, Роуз Мария Вильде

О фильме:
Чтобы оживить семейные отношения полицейский из Нью-Йорка вместе со своей женой отправляются в путешествие по Европе. В самолете они знакомятся с богатым пожилым мужчиной, который приглашает их на свою роскошную яхту. Но там его убивают, а они становятся главными подозреваемыми...

Страна: США
Студия: Endgame Entertainment, Happy Madison Productions, Tower Hill Entertainment, Vinson Films
Продолжительность: 01:37:46
Перевод: Дублированный | Пифагор по заказу Netflix

Файл
Кодек: AVC
Качество: WEB-DL 720p | Murder.Mystery.2019.720p.NF.WEB-DL.DDP5.1.x264-NTG
Видео: MPEG-4 AVC, 2260 Kбит/с, 1280x720, 24.000 кадр/с
Аудио #1: Русский (E-АС3, 6ch, 640 Кбит/с, 48.0 KHz) Профессиональный (полное дублирование) Пифагор
Аудио #2: Английский (E-АС3, 6ch, 640 Кбит/с, 48.0 KHz)
*** Wilmots@EniaHD
Субтитры: Русские (forced, full), английские, немецкие, испанские, французские, итальянские | Нетфликс
Трейлер




[+] MediaInfo
Источник: Murder.Mystery.2019.720p.NF.WEBRip.DDP5.1.x264-NTG
General
Unique ID                      : 231562680148413466846398919494417494230 (0xAE355997A2F1791194BC6F3DEF73B0D6)
Complete name                  : Murder.Mystery.2019.720p.NF.WEB-DL.mkv
Format                         : Matroska
Format version                 : Version 4
File size                      : 2.34 GiB
Duration                       : 1 h 37 min
Overall bit rate mode          : Variable
Overall bit rate               : 3 432 kb/s
Movie name                     : Murder Mystery (2019) - EniaHD
Encoded date                   : UTC 2019-06-15 08:39:47
Writing application            : mkvmerge v7.1.0 ('Good Love') 64bit built on Jul 27 2014 13:06:55
Writing library                : libebml v1.3.0 + libmatroska v1.4.1

Video
ID                             : 1
Format                         : AVC
Format/Info                    : Advanced Video Codec
Format profile                 : Main@L3.1
Format settings                : CABAC / 3 Ref Frames
Format settings, CABAC         : Yes
Format settings, Reference fra : 3 frames
Codec ID                       : V_MPEG4/ISO/AVC
Duration                       : 1 h 37 min
Bit rate mode                  : Variable
Bit rate                       : 2 149 kb/s
Nominal bit rate               : 2 260 kb/s
Maximum bit rate               : 3 390 kb/s
Width                          : 1 280 pixels
Height                         : 720 pixels
Display aspect ratio           : 16:9
Frame rate mode                : Constant
Frame rate                     : 24.000 FPS
Color space                    : YUV
Chroma subsampling             : 4:2:0
Bit depth                      : 8 bits
Scan type                      : Progressive
Bits/(Pixel*Frame)             : 0.097
Stream size                    : 1.47 GiB (63%)
Writing library                : x264 core 148 r2715 7e75228
Encoding settings              : cabac=1 / ref=3 / deblock=1:0:0 / analyse=0x1:0x111 / me=umh / subme=10 / psy=1 / psy_rd=1.00:0.00 / mixed_ref=1 / me_range=24 / chroma_me=1 / trellis=2 / 8x8dct=0 / cqm=0 / deadzone=21,11 / fast_pskip=1 / chroma_qp_offset=-2 / threads=8 / lookahead_threads=1 / sliced_threads=0 / nr=0 / decimate=1 / interlaced=0 / bluray_compat=0 / stitchable=1 / constrained_intra=0 / bframes=2 / b_pyramid=0 / b_adapt=2 / b_bias=0 / direct=3 / weightb=1 / open_gop=0 / weightp=2 / keyint=250 / keyint_min=24 / scenecut=0 / intra_refresh=0 / rc_lookahead=48 / rc=2pass / mbtree=1 / bitrate=2260 / ratetol=1.0 / qcomp=0.50 / qpmin=6 / qpmax=51 / qpstep=4 / cplxblur=20.0 / qblur=0.5 / vbv_maxrate=3390 / vbv_bufsize=4520 / nal_hrd=vbr / filler=0 / ip_ratio=1.40 / aq=1:1.00
Language                       : English
Default                        : Yes
Forced                         : No

Audio #1
ID                             : 2
Format                         : E-AC-3
Format/Info                    : Enhanced AC-3
Commercial name                : Dolby Digital Plus
Codec ID                       : A_EAC3
Duration                       : 1 h 37 min
Bit rate mode                  : Constant
Bit rate                       : 640 kb/s
Channel(s)                     : 6 channels
Channel layout                 : L R C LFE Ls Rs
Sampling rate                  : 48.0 kHz
Frame rate                     : 31.250 FPS (1536 SPF)
Compression mode               : Lossy
Stream size                    : 448 MiB (19%)
Title                          : Dub | Пифагор
Language                       : Russian
Service kind                   : Complete Main
Default                        : Yes
Forced                         : No

Audio #2
ID                             : 3
Format                         : E-AC-3
Format/Info                    : Enhanced AC-3
Commercial name                : Dolby Digital Plus
Codec ID                       : A_EAC3
Duration                       : 1 h 37 min
Bit rate mode                  : Constant
Bit rate                       : 640 kb/s
Channel(s)                     : 6 channels
Channel layout                 : L R C LFE Ls Rs
Sampling rate                  : 48.0 kHz
Frame rate                     : 31.250 FPS (1536 SPF)
Compression mode               : Lossy
Stream size                    : 448 MiB (19%)
Language                       : English
Service kind                   : Complete Main
Default                        : No
Forced                         : No

Text #1
ID                             : 4
Format                         : UTF-8
Codec ID                       : S_TEXT/UTF8
Codec ID/Info                  : UTF-8 Plain Text
Duration                       : 1 h 36 min
Bit rate                       : 0 b/s
Count of elements              : 15
Stream size                    : 567 Bytes (0%)
Title                          : Forced
Language                       : Russian
Default                        : Yes
Forced                         : No

Text #2
ID                             : 5
Format                         : UTF-8
Codec ID                       : S_TEXT/UTF8
Codec ID/Info                  : UTF-8 Plain Text
Duration                       : 1 h 36 min
Bit rate                       : 118 b/s
Count of elements              : 1674
Stream size                    : 83.9 KiB (0%)
Title                          : Full
Language                       : Russian
Default                        : No
Forced                         : No

Text #3
ID                             : 6
Format                         : UTF-8
Codec ID                       : S_TEXT/UTF8
Codec ID/Info                  : UTF-8 Plain Text
Duration                       : 1 h 28 min
Bit rate                       : 99 b/s
Count of elements              : 1898
Stream size                    : 64.3 KiB (0%)
Language                       : English
Default                        : No
Forced                         : No

Text #4
ID                             : 7
Format                         : UTF-8
Codec ID                       : S_TEXT/UTF8
Codec ID/Info                  : UTF-8 Plain Text
Duration                       : 1 h 28 min
Bit rate                       : 106 b/s
Count of elements              : 2035
Stream size                    : 69.2 KiB (0%)
Title                          : SDH
Language                       : English
Default                        : No
Forced                         : No

Text #5
ID                             : 8
Format                         : UTF-8
Codec ID                       : S_TEXT/UTF8
Codec ID/Info                  : UTF-8 Plain Text
Duration                       : 1 h 26 min
Bit rate                       : 87 b/s
Count of elements              : 1658
Stream size                    : 55.4 KiB (0%)
Language                       : German
Default                        : No
Forced                         : No

Text #6
ID                             : 9
Format                         : UTF-8
Codec ID                       : S_TEXT/UTF8
Codec ID/Info                  : UTF-8 Plain Text
Duration                       : 1 h 26 min
Bit rate                       : 92 b/s
Count of elements              : 1710
Stream size                    : 59.1 KiB (0%)
Language                       : French
Default                        : No
Forced                         : No

Text #7
ID                             : 10
Format                         : UTF-8
Codec ID                       : S_TEXT/UTF8
Codec ID/Info                  : UTF-8 Plain Text
Duration                       : 1 h 26 min
Bit rate                       : 82 b/s
Count of elements              : 1687
Stream size                    : 52.6 KiB (0%)
Title                          : European
Language                       : Spanish
Default                        : No
Forced                         : No

Text #8
ID                             : 11
Format                         : UTF-8
Codec ID                       : S_TEXT/UTF8
Codec ID/Info                  : UTF-8 Plain Text
Duration                       : 1 h 26 min
Bit rate                       : 89 b/s
Count of elements              : 1649
Stream size                    : 56.8 KiB (0%)
Language                       : Italian
Default                        : No
Forced                         : No



Скриншоты:
[+] Всего файлов в раздаче - 1:
Murder.Mystery.2019.720p.NF.WEB-DL.mkv2.34 GB

Показать еще раздачи по запросу загадочное:
2019-06-21 U Загадочное убийство / Murder Mystery (2019) WEB-DLRip-AVC от New-Team | D 1.46 GB ↑ 81 ↓ 21
2019-06-17 U Загадочное убийство / Murder Mystery (2019) WEB-DL-HEVC 2160p | 4K | HDR | Пифагор 14.57 GB ↑ 61 ↓ 31
2019-06-17 U Загадочное убийство / Murder Mystery (2019) WEB-DLRip от Portablius | Пифагор 741.26 MB ↑ 106 ↓ 24
2019-06-17 U Загадочное убийство / Murder Mystery (2019) WEB-DLRip от Scarabey | Пифагор 1.44 GB ↑ 126 ↓ 39
2019-06-16 U Загадочное убийство / Murder Mystery (2019) WEB-DLRip-AVC от OlLanDGroup | Пифагор 1.46 GB ↑ 98 ↓ 37
2019-06-15 U Загадочное убийство / Murder Mystery (2019) WEB-DL-HEVC 1080p | HDR | Пифагор 1К4.51 GB ↑ 209 ↓ 118
2019-06-15 U Загадочное убийство / Murder Mystery (2019) WEB-DLRip-AVC | Пифагор 741.43 MB ↑ 3 ↓ 75

Отзывы
Зарегистрируйтесь чтобы добавить комментарий.
Обратная связь
Copyleft ©