↑↓Torrent.by
Поиск
Логин: Регистрация
Пароль: Восстановить пароль
Загрузка...

Время монстров / The Head Hunter (2018) BDRip-AVC от ExKinoRay | HDRezka Studio

Скачать vremya-monstrov-the-head-hunter-2018-bdrip-avc-ot-exkinoray-hdrezka-studio.torrent
U Магнитная ссылка Размер: 1.32 GB Раздают: 41 Качают: 16 Добавлен: 2019-06-15 17:02:56
Время монстров / The Head Hunter (2018) BDRip-AVC от ExKinoRay | HDRezka Studio

Название: Время монстров
Оригинальное название: The Head Hunter
Год выхода: 2018
Жанр:  Ужасы, фэнтези
Режиссер: Джордан Дауни
В ролях: Кристофер Рай, Кора Кауфман

Описание:  Средневековый воин живёт отшельником в мрачном лесу и жаждет отомстить смертельно опасному существу за гибель своей единственной дочери. Получая от короля сведения о появляющихся в округе монстрах, он отправляется за их головами, каждый раз надеясь, что встретит своего заклятого врага.

Страна: США
Продолжительность: 01:12:27
Перевод: Профессиональный (многоголосый, закадровый) | HDRezka Studio
Субтитры: Русские (Enigma), английские

БЕЗ КАКОЙ-ЛИБО РЕКЛАМЫ!

Формат: MKV
Качество: BDRip-AVC
Видео: MPEG-4 AVC, 1024x576 (16:9), 23.976 fps, 1908 Kbps, 0.135 bit/pixel
Аудио #01: 48 kHz, AC3, 2.0, 256 Kbps | MVO | RUS |
Аудио #02: 48 kHz, AC3, 5.1, 448 Kbps | Оригинал |  ENG |

Релиз:

Автор релиза:


[+] ОтчетМедиаИнфо

General
Unique ID                                : 177182665094694105776213236673257342597 (0x854C23D9379706928B8403977F570685)
Complete name                            : F:The.Head.Hunter.2018.MVO.BDRip.AVC.ExKinoRay.mkv
Format                                   : Matroska
Format version                           : Version 2
File size                                : 1.32 GiB
Duration                                 : 1 h 12 min
Overall bit rate                         : 2 608 kb/s
Movie name                               : The Head Hunter 2018 from ExKinoRay
Encoded date                             : UTC 2019-06-15 02:47:57
Writing application                      : mkvmerge v5.6.0 ('Kenya Kane') built on May 27 2012 16:44:04
Writing library                          : libebml v1.2.3 + libmatroska v1.3.0

Video
ID                                       : 1
Format                                   : AVC
Format/Info                              : Advanced Video Codec
Format profile                           : High@L4.1
Format settings, CABAC                   : Yes
Format settings, ReFrames                : 12 frames
Codec ID                                 : V_MPEG4/ISO/AVC
Duration                                 : 1 h 12 min
Bit rate                                 : 1 908 kb/s
Width                                    : 1 024 pixels
Height                                   : 576 pixels
Display aspect ratio                     : 16:9
Frame rate mode                          : Constant
Frame rate                               : 23.976 (23976/1000) FPS
Color space                              : YUV
Chroma subsampling                       : 4:2:0
Bit depth                                : 8 bits
Scan type                                : Progressive
Bits/(Pixel*Frame)                       : 0.135
Stream size                              : 960 MiB (71%)
Title                                    : Enigma
Writing library                          : x264 core 152 r2851 ba24899
Encoding settings                        : cabac=1 / ref=12 / deblock=1:-2:-2 / analyse=0x3:0x113 / me=umh / subme=10 / psy=1 / psy_rd=1.07:0.10 / mixed_ref=1 / me_range=32 / chroma_me=1 / trellis=2 / 8x8dct=1 / cqm=0 / deadzone=21,11 / fast_pskip=0 / chroma_qp_offset=-3 / threads=12 / lookahead_threads=3 / sliced_threads=0 / nr=0 / decimate=0 / interlaced=0 / bluray_compat=0 / constrained_intra=0 / bframes=12 / b_pyramid=2 / b_adapt=2 / b_bias=0 / direct=3 / weightb=1 / open_gop=0 / weightp=2 / keyint=240 / keyint_min=23 / scenecut=40 / intra_refresh=0 / rc=2pass / mbtree=0 / bitrate=1908 / ratetol=1.0 / qcomp=0.70 / qpmin=0 / qpmax=51 / qpstep=4 / cplxblur=20.0 / qblur=0.5 / ip_ratio=1.30 / pb_ratio=1.20 / aq=3:0.80
Language                                 : English
Default                                  : Yes
Forced                                   : No
Color range                              : Limited
Color primaries                          : BT.709
Transfer characteristics                 : BT.709
Matrix coefficients                      : BT.709

Audio #1
ID                                       : 2
Format                                   : AC-3
Format/Info                              : Audio Coding 3
Mode extension                           : CM (complete main)
Format settings, Endianness              : Big
Codec ID                                 : A_AC3
Duration                                 : 1 h 12 min
Bit rate mode                            : Constant
Bit rate                                 : 256 kb/s
Channel(s)                               : 2 channels
Channel positions                        : Front: L R
Sampling rate                            : 48.0 kHz
Frame rate                               : 31.250 FPS (1536 spf)
Compression mode                         : Lossy
Stream size                              : 133 MiB (10%)
Title                                    : MVO (HDRezka Studio)
Language                                 : Russian
Default                                  : Yes
Forced                                   : No

Audio #2
ID                                       : 3
Format                                   : AC-3
Format/Info                              : Audio Coding 3
Mode extension                           : CM (complete main)
Format settings, Endianness              : Big
Codec ID                                 : A_AC3
Duration                                 : 1 h 12 min
Bit rate mode                            : Constant
Bit rate                                 : 448 kb/s
Channel(s)                               : 6 channels
Channel positions                        : Front: L C R, Side: L R, LFE
Sampling rate                            : 48.0 kHz
Frame rate                               : 31.250 FPS (1536 spf)
Compression mode                         : Lossy
Stream size                              : 232 MiB (17%)
Language                                 : English
Default                                  : No
Forced                                   : No

Text #1
ID                                       : 4
Format                                   : UTF-8
Codec ID                                 : S_TEXT/UTF8
Codec ID/Info                            : UTF-8 Plain Text
Title                                    : Full (Enigma)
Language                                 : Russian
Default                                  : No
Forced                                   : No

Text #2
ID                                       : 5
Format                                   : UTF-8
Codec ID                                 : S_TEXT/UTF8
Codec ID/Info                            : UTF-8 Plain Text
Language                                 : English
Default                                  : No
Forced                                   : No

Menu
00:00:00.000                             : en:Глава 01
00:05:32.374                             : en:Глава 02
00:12:24.869                             : en:Глава 03
00:18:25.396                             : en:Глава 04
00:25:51.759                             : en:Глава 05
00:30:01.800                             : en:Глава 06
00:36:04.537                             : en:Глава 07
00:42:41.476                             : en:Глава 08
00:49:05.109                             : en:Глава 09
00:53:28.622                             : en:Глава 10
01:01:16.756                             : en:Глава 11
01:08:15.925                             : en:Глава 12




Скриншоты:
[+] Всего файлов в раздаче - 1:
The.Head.Hunter.2018.MVO.BDRip.AVC.ExKinoRay.mkv1.32 GB

Показать еще раздачи по запросу время:
2019-07-16 U Исчезнувшее время / Vanishing Time: A Boy Who Returned / Garyeojin sigan (2016) BDRip 720p | L1 4.70 GB ↑ 67 ↓ 16
2019-06-17 U Время монстров / The Head Hunter (2018) BDRip от Twister & ExKinoRay | iTunes 1.43 GB ↑ 69 ↓ 20
2019-06-14 U Время монстров / The Head Hunter (2018) BDRip 720p от селезень | iTunes 4.06 GB ↑ 112 ↓ 29
2019-06-14 U Время монстров / The Head Hunter (2018) BDRip 1080p от селезень | iTunes 7.40 GB ↑ 145 ↓ 44
2019-06-14 U Время монстров / The Head Hunter (2018) BDRip от MegaPeer | iTunes 1.09 GB ↑ 225 ↓ 30
2019-05-17 U Оружие, время, мотив / L'arma, l'ora, il movente (1972) DVDRip | A 1.47 GB ↑ 27 ↓ 16
2019-05-04 U Время возмездия / Destroyer (2018) BDRip от Twister & ExKinoRay | iTunes 1.46 GB ↑ 49 ↓ 12

Отзывы
Зарегистрируйтесь чтобы добавить комментарий.
Обратная связь
Copyleft ©