↑↓Torrent.by
Поиск
Логин: Регистрация
Пароль: Восстановить пароль
Загрузка...

Пилигрим (2018) WEB-DLRip от Generalfilm | iTunes

Скачать piligrim-2018-web-dlrip-ot-generalfilm-itunes.torrent
U Магнитная ссылка Размер: 1.45 GB Раздают: 127 Качают: 39 Добавлен: 2019-06-16 07:11:15
Пилигрим (2018) WEB-DLRip от Generalfilm | iTunes

Оригинальное название: Пилигрим
Год выпуска: 2018
Жанр:  Триллер
Выпущено: Россия, «Север», «Чайка Синема»
Режиссер: Александр Баршак
В ролях: Игорь Петренко, Елена Север, Алексей Серебряков, Владимир Ильин, Татьяна Васильева, Анна Банщикова, Дмитрий Мухамадеев, Дмитрий Куличков, Сергей Беляев, Павел Кузьмин.

О фильме: В жизни Миры всё замечательно: она — владелица модной галереи, дома ждёт любящий муж. Но однажды на берегу моря находят мужчину с амнезией, который помнит её имя. Никто не знает, кто он. Его нет ни в одной базе данных. Но он знает о ней то, что может знать только очень близкий человек, хотя Мира ни разу в жизни его не видела. Благополучный мир Миры начинает разрушаться, когда выясняется, что неизвестный провёл несколько лет на Ближнем Востоке и за ним идёт настоящая охота.

Качество: WEB-DLRip
Видео: XviD build 73, 720x304 (2.37:1), 24.000 fps, 1751 Kbps (0.333 bit/pixel)
Аудио: 48.0 kHz, AC3 Dolby Digital, 5/1 (L C R, Side: L R, LFE) ch, 384 kbps
Продолжительность: 01:37:09
Перевод: Не требуется [Русский]
Cубтитры: нет

Релиз:


[+] MediaInfo
General
Complete name               : D:RazdachiPiligrim.2018.WEB-DLRip.GeneralFilm.avi
Format                      : AVI
Format/Info                 : Audio Video Interleave
File size                   : 1.45 GiB
Duration                    : 1 h 37 min
Overall bit rate            : 2 144 kb/s
Writing application         : VirtualDubMod 1.5.10.3 | www.virtualdub-fr.org || (build 2550/release)
Writing library             : VirtualDubMod build 2550/release

Video
ID                          : 0
Format                      : MPEG-4 Visual
Format profile              : Advanced Simple@L5
Format settings             : BVOP1 / Custom Matrix
Format settings, BVOP       : 1
Format settings, QPel       : No
Format settings, GMC        : No warppoints
Format settings, Matrix     : Custom
Codec ID                    : XVID
Codec ID/Hint               : XviD
Duration                    : 1 h 37 min
Bit rate                    : 1 751 kb/s
Width                       : 720 pixels
Height                      : 304 pixels
Display aspect ratio        : 2.35:1
Frame rate                  : 24.000 FPS
Color space                 : YUV
Chroma subsampling          : 4:2:0
Bit depth                   : 8 bits
Scan type                   : Progressive
Compression mode            : Lossy
Bits/(Pixel*Frame)          : 0.333
Stream size                 : 1.19 GiB (82%)
Writing library             : XviD 73

Audio
ID                          : 1
Format                      : AC-3
Format/Info                 : Audio Coding 3
Commercial name             : Dolby Digital
Codec ID                    : 2000
Duration                    : 1 h 37 min
Bit rate mode               : Constant
Bit rate                    : 384 kb/s
Channel(s)                  : 6 channels
Channel layout              : L R C LFE Ls Rs
Sampling rate               : 48.0 kHz
Frame rate                  : 31.250 FPS (1536 SPF)
Bit depth                   : 16 bits
Compression mode            : Lossy
Stream size                 : 267 MiB (18%)
Alignment                   : Split accross interleaves
Interleave, duration        : 42  ms (1.00 video frame)
Interleave, preload duratio : 500  ms
Service kind                : Complete Main



Скриншоты:
[+] Всего файлов в раздаче - 1:
Piligrim.2018.WEB-DLRip.GeneralFilm.avi1.45 GB

Похожие раздачи по запросу - пилигрим:
2019-06-17 U Пилигрим (2018) WEB-DLRip от Scarabey | iTunes 1.44 GB ↑ 80 ↓ 47
2019-06-16 U Пилигрим (2018) WEB-DLRip от Generalfilm | КПК | iTunes 369.09 MB ↑ 55 ↓ 4
2019-06-16 U Пилигрим (2018) WEB-DLRip-AVC | iTunes 743.07 MB ↑ 140 ↓ 10
2019-06-15 U Пилигрим (2018) WEB-DLRip-AVC от Files-x | iTunes 1.37 GB ↑ 402 ↓ 242
2019-06-15 U Пилигрим (2018) WEB-DLRip 743.44 MB ↑ 372 ↓ 98
2019-06-15 U Пилигрим (2018) WEB-DL 1080p | iTunes 3.33 GB ↑ 440 ↓ 289

Отзывы
Зарегистрируйтесь чтобы добавить комментарий.
Обратная связь
Copyleft ©