↑↓Torrent.by
Поиск
Логин: Регистрация
Пароль: Восстановить пароль
Загрузка...

Нейтрино: Послание с края Вселенной / Black Holes: Messages from the Edge of the Universe (2017) HDTVRip 720p | P

Скачать neytrino-poslanie-s-kraya-vselennoy-black-holes-messages-from-the-edge-of-universe-2017-hdtvrip-720p-p.torrent
U Магнитная ссылка Размер: 1.61 GB Раздают: 73 Качают: 18 Добавлен: 2019-06-16 07:11:55
Нейтрино:  Послание с края Вселенной / Black Holes: Messages from the Edge of the Universe (2017) HDTVRip 720p | P

Название: Нейтрино:  Послание с края Вселенной
Оригинальное название: Black Holes: Messages from the Edge of the Universe
Год выхода: 2017
Жанр: Документальный, научно-популярный
Режиссер: Мартина Тройш

О фильме:
Документальный фильм, рассказывающий о рождении новой нейтринной астрономии. Нейтрино - наиболее распространенные и загадочные элементарные частицы. Они недоступны глазу, а их масса неизвестна. Кроме того, нейтрино не имеют электрического заряда и плохо взаимодействуют с другим веществом. Как же их обнаружить? Смогут ли эти частицы стать ключом к разгадке тайн Вселенной? Впервые астрофизики попробуют найти внеземные нейтрино во льду Южного полюса.

Страна: Франция
Студия: Hoferichter & Jacobs, RBB, arte
Продолжительность: ~ 00:51:53
Перевод: Профессиональный (многоголосый, закадровый) 1ТВЧ

Файл
Кодек: AVC/H.264
Качество: HDTVRip 720p
Видео: 1280x720 (16:9), 25 fps, AVC (Н.264), High@L4,1, 4000 kbps avg, 0.174 bit/pixel
Звук: Русский 48.0 KHz, AC3 6 ch (Front: L C R, Side: L R, LFE) ch, ~448.00 kbps avg

Семпл

Релиз от: kyba
[+] MediaInfo
Complete name               : F:НаладкиНейтриноНейтрино_ Послание с края Вселенной_720p.mkv
Format                      : Matroska
Format version              : Version 4 / Version 2
File size                   : 1.61 GiB
Duration                    : 51 min 53 s
Overall bit rate            : 4 450 kb/s
Encoded date                : UTC 2019-06-15 09:24:13
Writing application         : mkvmerge v6.6.0 ('The Edge Of The In Between') built on Dec  1 2013 17:55:00
Writing library             : libebml v1.3.0 + libmatroska v1.4.1

Video
ID                          : 1
Format                      : AVC
Format/Info                 : Advanced Video Codec
Format profile              : High@L4.1
Format settings             : CABAC / 9 Ref Frames
Format settings, CABAC      : Yes
Format settings, ReFrames   : 9 frames
Codec ID                    : V_MPEG4/ISO/AVC
Duration                    : 51 min 53 s
Bit rate                    : 4 000 kb/s
Width                       : 1 280 pixels
Height                      : 720 pixels
Display aspect ratio        : 16:9
Frame rate mode             : Constant
Frame rate                  : 25.000 FPS
Color space                 : YUV
Chroma subsampling          : 4:2:0
Bit depth                   : 8 bits
Scan type                   : Progressive
Bits/(Pixel*Frame)          : 0.174
Stream size                 : 1.42 GiB (88%)
Writing library             : x264 core 157 r2935 545de2f
Encoding settings           : cabac=1 / ref=9 / deblock=1:-3:-3 / analyse=0x3:0x133 / me=umh / subme=9 / psy=1 / psy_rd=1.00:0.00 / mixed_ref=1 / me_range=32 / chroma_me=1 / trellis=2 / 8x8dct=1 / cqm=0 / deadzone=21,11 / fast_pskip=1 / chroma_qp_offset=-2 / threads=12 / lookahead_threads=2 / sliced_threads=0 / nr=0 / decimate=0 / interlaced=0 / bluray_compat=0 / constrained_intra=0 / bframes=9 / b_pyramid=2 / b_adapt=2 / b_bias=0 / direct=3 / weightb=1 / open_gop=0 / weightp=2 / keyint=250 / keyint_min=25 / scenecut=40 / intra_refresh=0 / rc_lookahead=50 / rc=2pass / mbtree=1 / bitrate=4000 / ratetol=1.0 / qcomp=0.60 / qpmin=0 / qpmax=69 / qpstep=4 / cplxblur=20.0 / qblur=0.5 / ip_ratio=1.40 / aq=1:1.00
Language                    : English
Default                     : Yes
Forced                      : No

Audio
ID                          : 2
Format                      : AC-3
Format/Info                 : Audio Coding 3
Codec ID                    : A_AC3
Duration                    : 51 min 53 s
Bit rate mode               : Constant
Bit rate                    : 448 kb/s
Channel(s)                  : 6 channels
Channel positions           : Front: L C R, Side: L R, LFE
Sampling rate               : 48.0 kHz
Frame rate                  : 31.250 FPS (1536 SPF)
Bit depth                   : 16 bits
Compression mode            : Lossy
Stream size                 : 166 MiB (10%)
Language                    : Russian
Service kind                : Complete Main
Default                     : Yes
Forced                      : No



Скриншоты:
[+] Всего файлов в раздаче - 1:
Нейтрино_ Послание с края Вселенной_720p.mkv1.61 GB

Отзывы
Зарегистрируйтесь чтобы добавить комментарий.
Обратная связь
Copyleft ©