↑↓Torrent.by
Поиск
Логин: Регистрация
Пароль: Восстановить пароль
Загрузка...

Кто я? (2010) WEB-DLRip от GeneralFilm

Скачать kto-ya-2010-web-dlrip-ot-generalfilm.torrent
U Магнитная ссылка Размер: 1.46 GB Раздают: 39 Качают: 22 Добавлен: 2019-06-16 07:12:24
Кто я? (2010) WEB-DLRip от GeneralFilm

Оригинальное название: Кто я?
Год выпуска: 2010
Жанр:  Драма, детектив
Выпущено: Россия, Wiet Media
Режиссер: Клим Шипенко
В ролях: Александр Яценко, Жанна Фриске, Сергей Газаров, Анатолий Белый, Виктория Толстоганова, Михаил Бабичев, Татьяна Федоровская, Константин Демидов (II), Евгения Ахременко, Илья Оболонков, Сергей Галанин, Андрей Кифияк, Александр Безродный, Игорь Ливенцов, Галина Стрижак, Василий Рукша, Татьяна Шепилова, Дмитрий Феоктистов

О фильме:
Эта история начинается на севастопольском вокзале ранним дождливым утром. На перроне рядом с поездом Москва-Севастополь милиция находит молодого человека без документов, потерявшего память. Он помнит множество фактов: исторические даты, песни своей любимой группы «СерьГа», но не может ни назвать своего имени, ни рассказать, откуда он и кто его семья. Следователь Сергей Шумов и психиатр доктор Трофимов в своей практике впервые сталкиваются с таким случаем. Психиатр определяет состояние молодого человека как диссоциативную амнезию, при которой забываются факты из личной жизни, но сохраняется память на многие внешние события. О молодом человеке могли бы рассказать его вещи, но они еще больше запутывают следователя. Шумову приходится обратиться за помощью к журналистке Оксане. Почти одновременно в одном из севастопольских двориков обнаруживается труп человека. Это преступление оставляет перед следователем не меньше вопросов: при мертвом также нет документов, и сразу установить его личность не удается. Расследование начинается.

Качество: WEB-DLRip
Видео: XviD build 73, 720x304 (2.37:1), 25.000 fps, 1711 Kbps (0.313 bit/pixel)
Аудио: 48.0 kHz, AC3 Dolby Digital, 5/1 (L C R, Side: L R, LFE) ch, 448 kbps
Продолжительность: 01:36:03
Перевод: Не требуется [Русский]
Cубтитры: нет

Релиз:


[+] MediaInfo
General
Complete name               : D:RazdachiKto.Ja.2010.WEBRip.GeneralFilm.avi
Format                      : AVI
Format/Info                 : Audio Video Interleave
File size                   : 1.46 GiB
Duration                    : 1 h 36 min
Overall bit rate            : 2 169 kb/s
Writing application         : VirtualDubMod 1.5.10.3 | www.virtualdub-fr.org || (build 2550/release)
Writing library             : VirtualDubMod build 2550/release

Video
ID                          : 0
Format                      : MPEG-4 Visual
Format profile              : Advanced Simple@L5
Format settings             : BVOP1 / Custom Matrix
Format settings, BVOP       : 1
Format settings, QPel       : No
Format settings, GMC        : No warppoints
Format settings, Matrix     : Custom
Codec ID                    : XVID
Codec ID/Hint               : XviD
Duration                    : 1 h 36 min
Bit rate                    : 1 711 kb/s
Width                       : 720 pixels
Height                      : 304 pixels
Display aspect ratio        : 2.35:1
Frame rate                  : 25.000 FPS
Color space                 : YUV
Chroma subsampling          : 4:2:0
Bit depth                   : 8 bits
Scan type                   : Progressive
Compression mode            : Lossy
Bits/(Pixel*Frame)          : 0.313
Stream size                 : 1.15 GiB (79%)
Writing library             : XviD 73

Audio
ID                          : 1
Format                      : AC-3
Format/Info                 : Audio Coding 3
Commercial name             : Dolby Digital
Codec ID                    : 2000
Duration                    : 1 h 36 min
Bit rate mode               : Constant
Bit rate                    : 448 kb/s
Channel(s)                  : 6 channels
Channel layout              : L R C LFE Ls Rs
Sampling rate               : 48.0 kHz
Frame rate                  : 31.250 FPS (1536 SPF)
Bit depth                   : 16 bits
Compression mode            : Lossy
Stream size                 : 308 MiB (21%)
Alignment                   : Split accross interleaves
Interleave, duration        : 40  ms (1.00 video frame)
Interleave, preload duratio : 500  ms
Service kind                : Complete Main



Скриншоты:
[+] Всего файлов в раздаче - 1:
Kto.Ja.2010.WEBRip.GeneralFilm.avi1.46 GB

Показать еще раздачи по запросу dlrip:
Сегодня U Хладнокровный / Cold Blood Legacy (2019) WEB-DLRip от Portablius | HDRezka Studio 745.60 MB ↑ 260 ↓ 70
Сегодня U Однажды в Стокгольме / Stockholm (2018) WEB-DLRip от MegaPeer | iTunes 1.46 GB ↑ 160 ↓ 70
Сегодня U Хладнокровный / Cold Blood Legacy (2019) WEB-DLRip-AVC от ExKinoRay | P 1.37 GB ↑ 389 ↓ 71
Сегодня U Гайлер (2017) WEB-DLRip-AVC от New-Team 1.40 GB ↑ 20 ↓ 5
Сегодня U В упор / Point Blank (2019) WEB-DLRip от Portablius | D 745.11 MB ↑ 24 ↓ 10
Сегодня U Хладнокровный / Cold Blood Legacy (2019) WEB-DLRip от ExKinoRay | P 1.36 GB ↑ 38 ↓ 60
Вчера U Раскопки / The Dig (2018) WEB-DLRip от toxics | HDRezka Studio 749.29 MB ↑ 83 ↓ 7

Отзывы
Зарегистрируйтесь чтобы добавить комментарий.
Обратная связь
Copyleft ©