↑↓Torrent.by
Поиск
Логин: Регистрация
Пароль: Восстановить пароль
Загрузка...

Кладбище домашних животных / Pet Sematary (2019) WEBRip 1080p | HDRezka Studio

Скачать kladbische-domashnih-zhivotnyh-pet-sematary-2019-webrip-1080p-hdrezka-studio.torrent
U Магнитная ссылка Размер: 3.34 GB Раздают: 244 Качают: 95 Добавлен: 2019-06-17 17:00:13
Кладбище домашних животных / Pet Sematary (2019) WEBRip 1080p | HDRezka Studio

Название: Кладбище домашних животных
Оригинальное название: Pet Sematary
Год выхода: 2019
Жанр: ужасы, триллер
Режиссер: Кевин Колш, Деннис Уидмайер

В ролях:  Джейсон Кларк, Эми Саймец, Джон Литгоу, Жете Лоранс, Хьюго Лавуа, Лукас Лавуа, Обсса Ахмед, Алисса Брук Ливайн, Мария Херрера, Фрэнк Скорпион

О фильме: Семья Луиса Крида переезжает в сельский дом, который, как выясняется, расположен по соседству с мрачным Кладбищем домашних животных. Именно здесь по совету соседа Луис хоронит кота Чёрча — любимца семьи, погибшего под колесами грузовика. Вскоре кот возвращается к любящему семейству, но, кажется, это уже не тот ласковый питомец, которого так любила дочь Луиса.

Страна: США
Продолжительность: 01:39:05
Перевод: Многоголосый закадровый | HDRezka Studio

Файл
Кодек: x.264
Качество: WEBRip 1080p
Видео: AVC, 1920x800 (2.40:1), 29.970 fps, 4 430 kb/s
Аудио 1: AC3, 48.0 KHz, 2 ch, 192 Kbps | RUS
Аудио 2: AC3, 48.0 KHz, 2 ch, 256 Kbps | ENG
Субтитры: корейские (hardsub), английские (цветные)

Семпл


[+] MI
General
Unique ID                                : 251474344528375491564849248164836107062 (0xBD3032710840C334B0E9D6B2F3656336)
Complete name                            : Pet.Sematary.2019.WEBRip.1080p.Rus.Eng.mkv
Format                                   : Matroska
Format version                           : Version 4
File size                                : 3.34 GiB
Duration                                 : 1 h 39 min
Overall bit rate                         : 4 830 kb/s
Encoded date                             : UTC 2019-06-17 08:42:27
Writing application                      : mkvmerge v8.3.0 ('Over the Horizon') 64bit
Writing library                          : libebml v1.3.1 + libmatroska v1.4.2

Video
ID                                       : 1
Format                                   : AVC
Format/Info                              : Advanced Video Codec
Format profile                           : High@L4.1
Format settings                          : CABAC / 4 Ref Frames
Format settings, CABAC                   : Yes
Format settings, ReFrames                : 4 frames
Codec ID                                 : V_MPEG4/ISO/AVC
Duration                                 : 1 h 39 min
Bit rate                                 : 4 430 kb/s
Width                                    : 1 920 pixels
Height                                   : 800 pixels
Display aspect ratio                     : 2.40:1
Frame rate mode                          : Constant
Frame rate                               : 29.970 (30000/1001) FPS
Color space                              : YUV
Chroma subsampling                       : 4:2:0
Bit depth                                : 8 bits
Scan type                                : Progressive
Bits/(Pixel*Frame)                       : 0.096
Stream size                              : 3.03 GiB (91%)
Writing library                          : x264 core 142 r2479 dd79a61
Encoding settings                        : cabac=1 / ref=1 / deblock=1:0:0 / analyse=0x3:0x3 / me=dia / subme=1 / psy=1 / psy_rd=1.00:0.00 / mixed_ref=0 / me_range=16 / chroma_me=1 / trellis=0 / 8x8dct=1 / cqm=0 / deadzone=21,11 / fast_pskip=1 / chroma_qp_offset=0 / threads=24 / lookahead_threads=4 / sliced_threads=0 / nr=0 / decimate=1 / interlaced=0 / bluray_compat=0 / constrained_intra=0 / bframes=3 / b_pyramid=2 / b_adapt=1 / b_bias=0 / direct=1 / weightb=1 / open_gop=0 / weightp=1 / keyint=300 / keyint_min=30 / scenecut=40 / intra_refresh=0 / rc_lookahead=0 / rc=abr / mbtree=0 / bitrate=4430 / ratetol=1.0 / qcomp=0.60 / qpmin=0 / qpmax=69 / qpstep=4 / vbv_maxrate=62500 / vbv_bufsize=78125 / nal_hrd=none / filler=0 / ip_ratio=1.40 / pb_ratio=1.30 / aq=1:1.00
Language                                 : English
Default                                  : Yes
Forced                                   : No
Color range                              : Limited
Color primaries                          : BT.709
Transfer characteristics                 : BT.709
Matrix coefficients                      : BT.709

Audio #1
ID                                       : 2
Format                                   : AC-3
Format/Info                              : Audio Coding 3
Commercial name                          : Dolby Digital
Codec ID                                 : A_AC3
Duration                                 : 1 h 39 min
Bit rate mode                            : Constant
Bit rate                                 : 192 kb/s
Channel(s)                               : 2 channels
Channel layout                           : L R
Sampling rate                            : 48.0 kHz
Frame rate                               : 31.250 FPS (1536 SPF)
Bit depth                                : 16 bits
Compression mode                         : Lossy
Stream size                              : 136 MiB (4%)
Title                                    : HDrezka Studio
Default                                  : Yes
Forced                                   : No

Audio #2
ID                                       : 3
Format                                   : AC-3
Format/Info                              : Audio Coding 3
Commercial name                          : Dolby Digital
Codec ID                                 : A_AC3
Duration                                 : 1 h 39 min
Bit rate mode                            : Constant
Bit rate                                 : 256 kb/s
Channel(s)                               : 2 channels
Channel layout                           : L R
Sampling rate                            : 48.0 kHz
Frame rate                               : 31.250 FPS (1536 SPF)
Bit depth                                : 16 bits
Compression mode                         : Lossy
Stream size                              : 181 MiB (5%)
Language                                 : English
Default                                  : No
Forced                                   : No

Text
ID                                       : 4
Format                                   : UTF-8
Codec ID                                 : S_TEXT/UTF8
Codec ID/Info                            : UTF-8 Plain Text
Duration                                 : 1 h 36 min
Bit rate                                 : 69 b/s
Count of elements                        : 897
Stream size                              : 48.9 KiB (0%)
Language                                 : English
Default                                  : No
Forced                                   : No



Скриншоты:
[+] Всего файлов в раздаче - 1:
Pet.Sematary.2019.WEBRip.1080p.Rus.Eng.mkv3.34 GB

Показать еще раздачи по запросу кладбище:
2019-07-12 U Кладбище искупления 14: Парк смерти / Redemption Cemetery 14: Dead Park (2019) PC 940.63 MB ↑ 86 ↓ 15
2019-07-05 U Кладбище домашних животных / Pet Sematary (2019) BDRip 1080p от HELLYWOOD | Лицензия 7.12 GB ↑ 71 ↓ 38
2019-07-05 U Кладбище домашних животных / Pet Sematary (2019) BDRip-AVC от HELLYWOOD | Лицензия 1.46 GB ↑ 33 ↓ 17
2019-07-05 U Кладбище домашних животных / Pet Sematary (2019) BDRip | D | Лицензия 2.13 GB ↑ 40 ↓ 11
2019-07-05 U Кладбище домашних животных / Pet Sematary (2019) BDRip-HEVC 1080p | D 3.68 GB ↑ 74 ↓ 15
2019-07-03 U Кладбище домашних животных / Pet Sematary (2019) BDRip-AVC от OlLanDGroup | D, P | Лицензия 2.19 GB ↑ 86 ↓ 8
2019-07-02 U Кладбище домашних животных / Pet Sematary (2019) BDRip 720p от селезень | D, P | Лицензия 4.53 GB ↑ 102 ↓ 70

Отзывы
Зарегистрируйтесь чтобы добавить комментарий.
Обратная связь
Copyleft ©