↑↓Torrent.by
Поиск
Логин: Регистрация
Пароль: Восстановить пароль
Загрузка...

Волшебный парк Джун / Wonder Park (2019) BDRip 1080p от селезень | iTunes

Скачать volshebnyy-park-dzhun-wonder-2019-bdrip-1080p-ot-selezen-itunes.torrent
U Магнитная ссылка Размер: 8.32 GB Раздают: 127 Качают: 94 Добавлен: 2019-06-20 09:22:23
Волшебный парк Джун / Wonder Park (2019) BDRip 1080p от селезень | iTunes

Название: Волшебный парк Джун
Оригинальное название: Wonder Park
Год выхода: 2019
Жанр: Мультфильм, фэнтези, комедия, приключения, семейный, полнометражный
Режиссер: Джош Аппелбаум, Андре Немец, Роберт Гордон
В ролях: София Мали, Дженнифер Гарнер, Кен Хадсон Кэмпбелл, Кенан Томпсон, Мила Кунис, Джон Оливер, Кен Жонг, Норберт Лео Батц, Мэттью Бродерик, Брианна Денски

О фильме: Однажды фантазерка Джун обнаруживает, что придуманный ею чудесный Парк развлечений реален! Но его существование под угрозой, и Джун нужен план спасения ее Мечты. Помогут девочке ее новые друзья — волшебные звери Парка.

Страна: Испания, США
Студия: Ilion Animation Studios, Midnight Radio, Nickelodeon Movies
Продолжительность: 01:25:16
Перевод: Дублированный | iTunes

Качество: BDRip 1080p
Видео: MPEG-4 AVC, 1920x800, 12.8 Mbit/s, 23.976 fps
Звук:
Аудио #01: 48 kHz, AC3, 5.1, 384 Kbps | iTunes | RUS |
Аудио #02: 48 kHz, AC3, 2.0, 160 Kbps | iTunes | UKR |
Аудио #03: 48 kHz, AC3, 5.1, 640 Kbps | Оригинал |  ENG |
Субтитры: Русские (Forced, full), английские

Релиз:


[+] MI
General
Unique ID                   : 307677536072547928376148780187862138264 (0xE77889B9F53076D45C8E6CE809037D98)
Complete name               : D:Video1111Wonder.Park.2019.D.BDRip.1080p.seleZen.mkv
Format                      : Matroska
Format version              : Version 4
File size                   : 8.32 GiB
Duration                    : 1 h 25 min
Overall bit rate            : 14.0 Mb/s
Movie name                  : Wonder Park 2019 from селезень
Encoded date                : UTC 2019-06-19 23:45:31
Writing application         : mkvmerge v33.1.0 ('Primrose') 64-bit
Writing library             : libebml v1.3.7 + libmatroska v1.5.0

Video
ID                          : 1
Format                      : AVC
Format/Info                 : Advanced Video Codec
Format profile              : High@L4.1
Format settings             : CABAC / 5 Ref Frames
Format settings, CABAC      : Yes
Format settings, Reference  : 5 frames
Codec ID                    : V_MPEG4/ISO/AVC
Duration                    : 1 h 25 min
Bit rate                    : 12.8 Mb/s
Width                       : 1 920 pixels
Height                      : 800 pixels
Display aspect ratio        : 2.40:1
Frame rate mode             : Constant
Frame rate                  : 23.976 (24000/1001) FPS
Color space                 : YUV
Chroma subsampling          : 4:2:0
Bit depth                   : 8 bits
Scan type                   : Progressive
Bits/(Pixel*Frame)          : 0.347
Stream size                 : 7.61 GiB (91%)
Title                       : MTeam
Writing library             : x264 core 157 r2938 2b00a84 TnP@MTeam Mod
Encoding settings           : cabac=1 / ref=5 / deblock=1:-3:-3 / analyse=0x3:0x133 / me=umh / subme=10 / psy=1 / psy_rd=1.05:0.00 / mixed_ref=1 / me_range=32 / chroma_me=1 / trellis=2 / 8x8dct=1 / cqm=0 / deadzone=21,11 / fast_pskip=0 / chroma_qp_offset=-2 / threads=12 / lookahead_threads=2 / sliced_threads=0 / nr=0 / decimate=0 / interlaced=0 / bluray_compat=0 / constrained_intra=0 / bframes=8 / b_pyramid=2 / b_adapt=2 / b_bias=0 / direct=3 / weightb=1 / open_gop=0 / weightp=2 / keyint=250 / keyint_min=24 / scenecut=40 / intra_refresh=0 / rc_lookahead=250 / rc=crf / mbtree=0 / crf=16.1 / qcomp=0.60 / qpmin=0 / qpmax=69 / qpstep=4 / vbv_maxrate=62500 / vbv_bufsize=78125 / crf_max=0.0 / nal_hrd=none / filler=0 / ip_ratio=1.30 / pb_ratio=1.20 / aq=3:0.80
Language                    : English
Default                     : Yes
Forced                      : No
Color range                 : Limited
Color primaries             : BT.709
Matrix coefficients         : BT.709

Audio #1
ID                          : 2
Format                      : AC-3
Format/Info                 : Audio Coding 3
Commercial name             : Dolby Digital
Codec ID                    : A_AC3
Duration                    : 1 h 25 min
Bit rate mode               : Constant
Bit rate                    : 384 kb/s
Channel(s)                  : 6 channels
Channel layout              : L R C LFE Ls Rs
Sampling rate               : 48.0 kHz
Frame rate                  : 31.250 FPS (1536 SPF)
Bit depth                   : 16 bits
Compression mode            : Lossy
Stream size                 : 234 MiB (3%)
Title                       : iTunes
Language                    : Russian
Service kind                : Complete Main
Default                     : Yes
Forced                      : Yes

Audio #2
ID                          : 3
Format                      : AC-3
Format/Info                 : Audio Coding 3
Commercial name             : Dolby Digital
Codec ID                    : A_AC3
Duration                    : 1 h 25 min
Bit rate mode               : Constant
Bit rate                    : 160 kb/s
Channel(s)                  : 2 channels
Channel layout              : L R
Sampling rate               : 48.0 kHz
Frame rate                  : 31.250 FPS (1536 SPF)
Bit depth                   : 16 bits
Compression mode            : Lossy
Stream size                 : 97.6 MiB (1%)
Title                       : iTunes
Language                    : Ukrainian
Service kind                : Complete Main
Default                     : No
Forced                      : No

Audio #3
ID                          : 4
Format                      : AC-3
Format/Info                 : Audio Coding 3
Commercial name             : Dolby Digital
Codec ID                    : A_AC3
Duration                    : 1 h 25 min
Bit rate mode               : Constant
Bit rate                    : 640 kb/s
Channel(s)                  : 6 channels
Channel layout              : L R C LFE Ls Rs
Sampling rate               : 48.0 kHz
Frame rate                  : 31.250 FPS (1536 SPF)
Bit depth                   : 16 bits
Compression mode            : Lossy
Stream size                 : 390 MiB (5%)
Title                       : Original
Language                    : English
Service kind                : Complete Main
Default                     : No
Forced                      : No

Text #1
ID                          : 5
Format                      : UTF-8
Codec ID                    : S_TEXT/UTF8
Codec ID/Info               : UTF-8 Plain Text
Duration                    : 1 h 1 min
Bit rate                    : 0 b/s
Count of elements           : 4
Stream size                 : 124 Bytes (0%)
Title                       : Forced
Language                    : Russian
Default                     : Yes
Forced                      : Yes

Text #2
ID                          : 6
Format                      : UTF-8
Codec ID                    : S_TEXT/UTF8
Codec ID/Info               : UTF-8 Plain Text
Duration                    : 1 h 17 min
Bit rate                    : 99 b/s
Count of elements           : 1116
Stream size                 : 56.4 KiB (0%)
Title                       : Full
Language                    : Russian
Default                     : No
Forced                      : No

Text #3
ID                          : 7
Format                      : UTF-8
Codec ID                    : S_TEXT/UTF8
Codec ID/Info               : UTF-8 Plain Text
Duration                    : 1 h 17 min
Bit rate                    : 64 b/s
Count of elements           : 1105
Stream size                 : 36.6 KiB (0%)
Title                       : Full
Language                    : English
Default                     : No
Forced                      : No

Menu
00:00:00.000                : en:Chapter 01
00:06:34.811                : en:Chapter 02
00:12:05.475                : en:Chapter 03
00:20:22.847                : en:Chapter 04
00:25:49.590                : en:Chapter 05
00:33:03.648                : en:Chapter 06
00:39:14.185                : en:Chapter 07
00:47:39.648                : en:Chapter 08
00:54:39.443                : en:Chapter 09
01:00:32.462                : en:Chapter 10
01:06:17.807                : en:Chapter 11
01:13:12.054                : en:Chapter 12
01:17:49.748                : en:Chapter 13



Скриншоты:
[+] Всего файлов в раздаче - 1:
Wonder.Park.2019.D.BDRip.1080p.seleZen.mkv8.32 GB

Показать еще раздачи по запросу волшебный:
2019-06-24 U Волшебный парк Джун / Wonder Park (2019) HDRip от Portablius | iTunes 787.33 MB ↑ 48 ↓ 20
2019-06-23 U Волшебный парк Джун / Wonder Park (2019) BDRip-HEVC 1080p | iTunes 4.82 GB ↑ 99 ↓ 19
2019-06-21 U Волшебный парк Джун / Wonder Park (2019) BDRemux 1080p от селезень | iTunes 19.42 GB ↑ 59 ↓ 24
2019-06-21 U Волшебный парк Джун / Wonder Park (2019) BDRip-AVC от ExKinoRay | iTunes 2.28 GB ↑ 102 ↓ 22
2013-12-28 U Волшебный клубок. 700 схем и образцов. Курс по вязанию (спицы) [2007, PDF, RUS] 3К137.98 MB ↑ 1351 ↓ 303
2013-10-31 U Красавица и чудовище 3: Волшебный мир Бель / Beauty and the Beast 3: Belle's Magical World (1998) DVDRip 1.37 GB ↑ 485 ↓ 13
2013-10-26 U Волшебный клад (1950) DVDRip 128.52 MB ↑ 14 ↓ 6

Отзывы
Зарегистрируйтесь чтобы добавить комментарий.
Обратная связь
Copyleft ©