↑↓Torrent.by
Поиск
Логин: Регистрация
Пароль: Восстановить пароль
Загрузка...

Шестой пост (2018) DVB | Киноверсия

Скачать shestoy-post-2018-dvb-kinoversiya.torrent
U Магнитная ссылка Размер: 1.46 GB Раздают: 165 Качают: 30 Добавлен: 2019-06-21 05:33:25
Шестой пост (2018) DVB | Киноверсия

Шестой пост

Страна: Казахстан
Производство: АЮ Синема
Год выпуска: 2018
Жанр:  драма, криминал
Продолжительность: 01:32:50

Режиссер: Серикбол Утепбергенов
Авторы сценария: Азамат Айтжан, Мухит Утешев
В ролях: Сануржан Сулейменов, Жасулан Омирбек, Серик Салкинбаев, Саят Исембаев, Ерболат Тогузаков, Гани Кулжанов, Малик Абдрахманов

Описание: Трагедия, которую пережили главные герои Ерлан и Даурен, не только разрушила старую дружбу, но и развела их по разные стороны решётки. На фоне конфликта между бывшими друзьями, а теперь солдатом и заключённым, вспыхивают события, которые заставят их сделать нелегкий выбор. Этот выбор изменит историю страны и отношение к истинному героизму...

Перевод: не требуется (оригинал)
Субтитры: нет

Качество: DVB
Формат: TS
Видео кодек: AVC
Аудио кодек: МР2
Видео: 1047@720x576 (16:9), 25.000 fps, MPEG-TS ~1 943 kbps avg
Аудио: 48.0 kHz, МР2, 2/0 (L,R) ch, ~192 kbps

Дата премьеры (мир): 15 марта 2018


[+] Media Info
General
ID                          : 1 (0x1)
Complete name               : Шестой пост (2018) [DVB].ts
Format                      : MPEG-TS
File size                   : 1.46 GiB
Duration                    : 1 h 32 min
Overall bit rate mode       : Variable
Overall bit rate            : 2 248 kb/s

Video
ID                          : 67 (0x43)
Menu ID                     : 1 (0x1)
Format                      : AVC
Format/Info                 : Advanced Video Codec
Format profile              : High@L3
Format settings             : CABAC / 3 Ref Frames
Format settings, CABAC      : Yes
Format settings, Reference  : 3 frames
Format settings, GOP        : M=4, N=32
Codec ID                    : 27
Duration                    : 1 h 32 min
Bit rate                    : 1 943 kb/s
Width                       : 720 pixels
Height                      : 576 pixels
Display aspect ratio        : 16:9
Frame rate                  : 25.000 FPS
Standard                    : Component
Color space                 : YUV
Chroma subsampling          : 4:2:0
Bit depth                   : 8 bits
Scan type                   : Interlaced
Scan type, store method     : Separated fields
Scan order                  : Top Field First
Bits/(Pixel*Frame)          : 0.187
Stream size                 : 1.26 GiB (86%)
Color range                 : Limited
Color primaries             : BT.601 PAL
Transfer characteristics    : BT.470 System B/G
Matrix coefficients         : BT.470 System B/G

Audio
ID                          : 68 (0x44)
Menu ID                     : 1 (0x1)
Format                      : MPEG Audio
Format version              : Version 1
Format profile              : Layer 2
Codec ID                    : 3
Duration                    : 1 h 32 min
Bit rate mode               : Constant
Bit rate                    : 192 kb/s
Channel(s)                  : 2 channels
Sampling rate               : 48.0 kHz
Frame rate                  : 41.667 FPS (1152 SPF)
Compression mode            : Lossy
Stream size                 : 127 MiB (9%)
Language                    : English



Скриншоты:
[+] Всего файлов в раздаче - 1:
Шестой пост (2018) [DVB].ts1.46 GB

Похожие раздачи по запросу - шестой:
2016-02-17 U Шестой элемент / 2001: A space travesty (2000) DVDRip от Scarabey | D 746.21 MB ↑ 115 ↓ 17
2016-02-17 U Шестой (1981) DVDRip-AVC от ExKinoRay 1.83 GB ↑ 21 ↓ 13
2013-12-01 U Х-Фактор Украина-4: Шестой прямой эфир (06) (ПОЛНОСТЬЮ) [30.11.2013, DVB] 6.22 GB ↑ 20 ↓ 5

Отзывы
Зарегистрируйтесь чтобы добавить комментарий.
Обратная связь
Copyleft ©