↑↓Torrent.by
Поиск
Логин: Регистрация
Пароль: Восстановить пароль
Загрузка...

Волшебный парк Джун / Wonder Park (2019) BDRemux 1080p от селезень | iTunes

Скачать volshebnyy-park-dzhun-wonder-2019-bdremux-1080p-ot-selezen-itunes.torrent
U Магнитная ссылка Размер: 19.42 GB Раздают: 58 Качают: 24 Добавлен: 2019-06-21 05:34:31
Волшебный парк Джун / Wonder Park (2019) BDRemux 1080p от селезень | iTunes

Название: Волшебный парк Джун
Оригинальное название: Wonder Park
Год выхода: 2019
Жанр: Мультфильм, фэнтези, комедия, приключения, семейный, полнометражный
Режиссер: Джош Аппелбаум, Андре Немец, Роберт Гордон
В ролях: София Мали, Дженнифер Гарнер, Кен Хадсон Кэмпбелл, Кенан Томпсон, Мила Кунис, Джон Оливер, Кен Жонг, Норберт Лео Батц, Мэттью Бродерик, Брианна Денски

О фильме: Однажды фантазерка Джун обнаруживает, что придуманный ею чудесный Парк развлечений реален! Но его существование под угрозой, и Джун нужен план спасения ее Мечты. Помогут девочке ее новые друзья — волшебные звери Парка.

Страна: Испания, США
Студия: Ilion Animation Studios, Midnight Radio, Nickelodeon Movies
Продолжительность: 01:25:17
Перевод: Дублированный | iTunes

Качество: BDRemux 1080p
Видео: MPEG-4 AVC, 1920x1080, 27.0 Mbit/s, 23.976 fps
Звук:
Аудио #01: 48 kHz, AC3, 5.1, 384 Kbps | iTunes | RUS |
Аудио #02: 48 kHz, AC3, 2.0, 160 Kbps | iTunes | UKR |
Аудио #03: 48 kHz, TrueHD, 7.1, 4327 Kbps | Оригинал |  ENG |
Аудио #04: 48 kHz, AC3, 5.1, 640 Kbps | Оригинал |  ENG |
Субтитры: Русские (Forced, full), английские

Релиз:


[+] MI
General
Unique ID                   : 221271862434829884474222645625212371879 (0xA677691B3457DB88886D26DA163C03A7)
Complete name               : D:Video1111Wonder.Park.2019.D.BDREMUX.1080p.seleZen.mkv
Format                      : Matroska
Format version              : Version 4
File size                   : 19.4 GiB
Duration                    : 1 h 25 min
Overall bit rate mode       : Variable
Overall bit rate            : 32.6 Mb/s
Movie name                  : Wonder Park 2019 from селезень
Encoded date                : UTC 2019-06-20 01:27:57
Writing application         : mkvmerge v33.1.0 ('Primrose') 64-bit
Writing library             : libebml v1.3.7 + libmatroska v1.5.0

Video
ID                          : 1
Format                      : AVC
Format/Info                 : Advanced Video Codec
Format profile              : High@L4.1
Format settings             : CABAC / 4 Ref Frames
Format settings, CABAC      : Yes
Format settings, Reference  : 4 frames
Codec ID                    : V_MPEG4/ISO/AVC
Duration                    : 1 h 25 min
Bit rate mode               : Variable
Bit rate                    : 27.0 Mb/s
Maximum bit rate            : 29.0 Mb/s
Width                       : 1 920 pixels
Height                      : 1 080 pixels
Display aspect ratio        : 16:9
Frame rate mode             : Constant
Frame rate                  : 23.976 (24000/1001) FPS
Color space                 : YUV
Chroma subsampling          : 4:2:0
Bit depth                   : 8 bits
Scan type                   : Progressive
Bits/(Pixel*Frame)          : 0.543
Stream size                 : 16.1 GiB (83%)
Language                    : English
Default                     : Yes
Forced                      : No

Audio #1
ID                          : 2
Format                      : AC-3
Format/Info                 : Audio Coding 3
Commercial name             : Dolby Digital
Codec ID                    : A_AC3
Duration                    : 1 h 25 min
Bit rate mode               : Constant
Bit rate                    : 384 kb/s
Channel(s)                  : 6 channels
Channel layout              : L R C LFE Ls Rs
Sampling rate               : 48.0 kHz
Frame rate                  : 31.250 FPS (1536 SPF)
Bit depth                   : 16 bits
Compression mode            : Lossy
Stream size                 : 234 MiB (1%)
Title                       : iTunes
Language                    : Russian
Service kind                : Complete Main
Default                     : Yes
Forced                      : Yes

Audio #2
ID                          : 3
Format                      : AC-3
Format/Info                 : Audio Coding 3
Commercial name             : Dolby Digital
Codec ID                    : A_AC3
Duration                    : 1 h 25 min
Bit rate mode               : Constant
Bit rate                    : 160 kb/s
Channel(s)                  : 2 channels
Channel layout              : L R
Sampling rate               : 48.0 kHz
Frame rate                  : 31.250 FPS (1536 SPF)
Bit depth                   : 16 bits
Compression mode            : Lossy
Stream size                 : 97.6 MiB (0%)
Title                       : iTunes
Language                    : Ukrainian
Service kind                : Complete Main
Default                     : No
Forced                      : No

Audio #3
ID                          : 4
Format                      : MLP FBA
Format/Info                 : Meridian Lossless Packing FBA
Commercial name             : Dolby TrueHD
Codec ID                    : A_TRUEHD
Duration                    : 1 h 25 min
Bit rate mode               : Variable
Bit rate                    : 4 327 kb/s
Maximum bit rate            : 6 264 kb/s
Channel(s)                  : 8 channels
Channel layout              : L R C LFE Ls Rs Lb Rb
Sampling rate               : 48.0 kHz
Frame rate                  : 1 200.000 FPS (40 SPF)
Compression mode            : Lossless
Stream size                 : 2.58 GiB (13%)
Title                       : Original
Language                    : English
Default                     : No
Forced                      : No

Audio #4
ID                          : 5
Format                      : AC-3
Format/Info                 : Audio Coding 3
Commercial name             : Dolby Digital
Codec ID                    : A_AC3
Duration                    : 1 h 25 min
Bit rate mode               : Constant
Bit rate                    : 640 kb/s
Channel(s)                  : 6 channels
Channel layout              : L R C LFE Ls Rs
Sampling rate               : 48.0 kHz
Frame rate                  : 31.250 FPS (1536 SPF)
Bit depth                   : 16 bits
Compression mode            : Lossy
Stream size                 : 390 MiB (2%)
Language                    : English
Service kind                : Complete Main
Default                     : No
Forced                      : No

Text #1
ID                          : 6
Format                      : UTF-8
Codec ID                    : S_TEXT/UTF8
Codec ID/Info               : UTF-8 Plain Text
Duration                    : 1 h 1 min
Bit rate                    : 0 b/s
Count of elements           : 4
Stream size                 : 124 Bytes (0%)
Title                       : Forced
Language                    : Russian
Default                     : Yes
Forced                      : Yes

Text #2
ID                          : 7
Format                      : UTF-8
Codec ID                    : S_TEXT/UTF8
Codec ID/Info               : UTF-8 Plain Text
Duration                    : 1 h 17 min
Bit rate                    : 99 b/s
Count of elements           : 1116
Stream size                 : 56.4 KiB (0%)
Title                       : Full
Language                    : Russian
Default                     : No
Forced                      : No

Text #3
ID                          : 8
Format                      : UTF-8
Codec ID                    : S_TEXT/UTF8
Codec ID/Info               : UTF-8 Plain Text
Duration                    : 1 h 17 min
Bit rate                    : 64 b/s
Count of elements           : 1105
Stream size                 : 36.6 KiB (0%)
Title                       : Full
Language                    : English
Default                     : No
Forced                      : No

Menu
00:00:00.000                : en:Глава 01
00:06:34.811                : en:Глава 02
00:12:05.475                : en:Глава 03
00:20:22.847                : en:Глава 04
00:25:49.590                : en:Глава 05
00:33:03.648                : en:Глава 06
00:39:14.185                : en:Глава 07
00:47:39.648                : en:Глава 08
00:54:39.443                : en:Глава 09
01:00:32.462                : en:Глава 10
01:06:17.807                : en:Глава 11
01:13:12.054                : en:Глава 12
01:17:49.748                : en:Глава 13



Скриншоты:
[+] Всего файлов в раздаче - 1:
Wonder.Park.2019.D.BDREMUX.1080p.seleZen.mkv19.42 GB

Показать еще раздачи по запросу волшебный:
2019-06-24 U Волшебный парк Джун / Wonder Park (2019) HDRip от Portablius | iTunes 787.33 MB ↑ 47 ↓ 18
2019-06-23 U Волшебный парк Джун / Wonder Park (2019) BDRip-HEVC 1080p | iTunes 4.82 GB ↑ 94 ↓ 19
2019-06-21 U Волшебный парк Джун / Wonder Park (2019) BDRip-AVC от ExKinoRay | iTunes 2.28 GB ↑ 95 ↓ 21
2019-06-20 U Волшебный парк Джун / Wonder Park (2019) BDRip 1080p от селезень | iTunes 8.32 GB ↑ 124 ↓ 91
2013-12-28 U Волшебный клубок. 700 схем и образцов. Курс по вязанию (спицы) [2007, PDF, RUS] 3К137.98 MB ↑ 1350 ↓ 303
2013-10-31 U Красавица и чудовище 3: Волшебный мир Бель / Beauty and the Beast 3: Belle's Magical World (1998) DVDRip 1.37 GB ↑ 485 ↓ 13
2013-10-26 U Волшебный клад (1950) DVDRip 128.52 MB ↑ 14 ↓ 6

Отзывы
Зарегистрируйтесь чтобы добавить комментарий.
Обратная связь
Copyleft ©