↑↓Torrent.by
Поиск
Логин: Регистрация
Пароль: Восстановить пароль
Загрузка...

Если Бил-стрит могла бы заговорить / If Beale Street Could Talk (2018) BDRip 1080p от селезень | Лицензия

Скачать esli-bil-strit-mogla-by-zagovorit-if-beale-street-could-talk-2018-bdrip-1080p-ot-selezen-licenziya.torrent
U Магнитная ссылка Размер: 13.01 GB Раздают: 87 Качают: 8 Добавлен: 2019-06-21 05:34:35
Если Бил-стрит могла бы заговорить / If Beale Street Could Talk (2018) BDRip 1080p от селезень | Лицензия

Название: Если Бил-стрит могла бы заговорить
Оригинальное название: If Beale Street Could Talk
Год выхода: 2018
Жанр: Драма, мелодрама, криминал
Режиссер: Барри Дженкинс
В ролях: Кики Лэйн, Стэфан Джеймс, Реджина Кинг, Колман Доминго, Тейона Паррис, Майкл Бич, Онжаню Эллис, Доминик Торн, Диего Луна, Педро Паскаль, Брайан Тайри Генри, Эд Скрейн

О фильме: 19-летняя Тиш помолвлена с 22-летним скульптором Фонни. Они готовятся к свадьбе, Тиш ждёт ребёнка, когда Фонни обвиняют в изнасиловании пуэрториканки Виктории. Молодой человек отправляется отбывать наказание за преступление, которого не совершал - его подставил расист-полицейский. Тем временем Виктория покидает США, возвращается домой, а мать Тиш, Шерон, отправляется вслед за женщиной, чтобы найти доказательства невиновности Фонни.

Страна: США
Студия: Annapurna Pictures, PASTEL, Plan B Entertainment
Продолжительность: 01:59:05
Перевод: Профессиональный многоголосый | Лицензия

Качество: BDRip 1080p
Видео: MPEG-4 AVC, 1920x960, 13.5 Mbit/s, 23.976 fps
Звук:
Аудио #01: 48 kHz, AC3, 5.1, 640 Kbps | Лицензия | RUS |
Аудио #02: 48 kHz, DTS, 5.1, 1510 Kbps | Оригинал |  ENG |
Субтитры: Русские (Full), английские

Релиз:


[+] MI
General
Unique ID                   : 16447197440056862925819271601966937857 (0xC5F9D70F97ED315975623F914E1F701)
Complete name               : D:Video111If.Beale.Street.Could.Talk.2018.BDRip.1080p.seleZen.mkv
Format                      : Matroska
Format version              : Version 4
File size                   : 13.0 GiB
Duration                    : 1 h 59 min
Overall bit rate            : 15.6 Mb/s
Movie name                  : If Beale Street Could Talk 2018 from селезень
Encoded date                : UTC 2019-06-20 09:59:48
Writing application         : mkvmerge v33.1.0 ('Primrose') 64-bit
Writing library             : libebml v1.3.7 + libmatroska v1.5.0

Video
ID                          : 1
Format                      : AVC
Format/Info                 : Advanced Video Codec
Format profile              : High@L4.1
Format settings             : CABAC / 4 Ref Frames
Format settings, CABAC      : Yes
Format settings, Reference  : 4 frames
Codec ID                    : V_MPEG4/ISO/AVC
Duration                    : 1 h 59 min
Bit rate                    : 13.5 Mb/s
Width                       : 1 920 pixels
Height                      : 960 pixels
Display aspect ratio        : 2.000
Frame rate mode             : Constant
Frame rate                  : 23.976 (24000/1001) FPS
Color space                 : YUV
Chroma subsampling          : 4:2:0
Bit depth                   : 8 bits
Scan type                   : Progressive
Bits/(Pixel*Frame)          : 0.305
Stream size                 : 11.2 GiB (86%)
Title                       : Du
Writing library             : x264 core 155 r2867+74 66b5600 t_mod_Custom_2 [8-bit@all X86_64]
Encoding settings           : cabac=1 / ref=4 / deblock=1:-3:-3 / analyse=0x3:0x133 / me=umh / subme=11 / psy=1 / fade_compensate=0.00 / psy_rd=1.00:0.00 / mixed_ref=1 / me_range=32 / chroma_me=1 / trellis=2 / 8x8dct=1 / cqm=0 / deadzone=21,11 / fast_pskip=0 / chroma_qp_offset=-2 / threads=12 / lookahead_threads=2 / sliced_threads=0 / nr=0 / decimate=0 / interlaced=0 / bluray_compat=0 / constrained_intra=0 / fgo=0 / bframes=8 / b_pyramid=2 / b_adapt=2 / b_bias=0 / direct=3 / weightb=1 / open_gop=0 / weightp=2 / keyint=250 / keyint_min=23 / scenecut=40 / intra_refresh=0 / rc=2pass / mbtree=0 / bitrate=13500 / ratetol=1.0 / qcomp=0.60 / qpmin=0:0:0 / qpmax=69:69:69 / qpstep=4 / cplxblur=20.0 / qblur=0.5 / ip_ratio=1.30 / pb_ratio=1.20 / aq=3:0.70 / aq-sensitivity=10.00 / aq-factor=1.00:1.00:1.00 / aq2=0 / aq3=0
Language                    : English
Default                     : Yes
Forced                      : No
Color range                 : Limited
Matrix coefficients         : BT.709

Audio #1
ID                          : 2
Format                      : AC-3
Format/Info                 : Audio Coding 3
Commercial name             : Dolby Digital
Codec ID                    : A_AC3
Duration                    : 1 h 59 min
Bit rate mode               : Constant
Bit rate                    : 640 kb/s
Channel(s)                  : 6 channels
Channel layout              : L R C LFE Ls Rs
Sampling rate               : 48.0 kHz
Frame rate                  : 31.250 FPS (1536 SPF)
Bit depth                   : 16 bits
Compression mode            : Lossy
Stream size                 : 545 MiB (4%)
Title                       : Dub [License]
Language                    : Russian
Service kind                : Complete Main
Default                     : Yes
Forced                      : Yes

Audio #2
ID                          : 3
Format                      : DTS
Format/Info                 : Digital Theater Systems
Codec ID                    : A_DTS
Duration                    : 1 h 59 min
Bit rate mode               : Constant
Bit rate                    : 1 509 kb/s
Channel(s)                  : 6 channels
Channel layout              : C L R Ls Rs LFE
Sampling rate               : 48.0 kHz
Frame rate                  : 93.750 FPS (512 SPF)
Bit depth                   : 24 bits
Compression mode            : Lossy
Stream size                 : 1.26 GiB (10%)
Title                       : Original
Language                    : English
Default                     : No
Forced                      : No

Text #1
ID                          : 4
Format                      : UTF-8
Codec ID                    : S_TEXT/UTF8
Codec ID/Info               : UTF-8 Plain Text
Duration                    : 1 h 56 min
Bit rate                    : 76 b/s
Count of elements           : 1510
Stream size                 : 65.4 KiB (0%)
Title                       : Full
Language                    : Russian
Default                     : No
Forced                      : No

Text #2
ID                          : 5
Format                      : UTF-8
Codec ID                    : S_TEXT/UTF8
Codec ID/Info               : UTF-8 Plain Text
Duration                    : 1 h 54 min
Bit rate                    : 52 b/s
Count of elements           : 1412
Stream size                 : 44.4 KiB (0%)
Title                       : Full
Language                    : English
Default                     : No
Forced                      : No

Menu
00:00:00.000                : :Capítulo 01
00:07:11.306                : :Capítulo 02
00:13:43.031                : :Capítulo 03
00:16:26.736                : :Capítulo 04
00:25:40.914                : :Capítulo 05
00:29:03.075                : :Capítulo 06
00:32:50.177                : :Capítulo 07
00:39:06.803                : :Capítulo 08
00:41:52.260                : :Capítulo 09
00:46:38.337                : :Capítulo 10
00:56:23.088                : :Capítulo 11
01:01:46.453                : :Capítulo 12
01:06:14.512                : :Capítulo 13
01:11:51.807                : :Capítulo 14
01:16:10.858                : :Capítulo 15
01:21:24.421                : :Capítulo 16
01:24:23.558                : :Capítulo 17
01:30:51.112                : :Capítulo 18
01:33:44.285                : :Capítulo 19
01:37:16.956                : :Capítulo 20
01:39:53.613                : :Capítulo 21
01:43:17.775                : :Capítulo 22
01:49:23.640                : :Capítulo 23
01:52:18.190                : :Capítulo 24



Скриншоты:
[+] Всего файлов в раздаче - 1:
If.Beale.Street.Could.Talk.2018.BDRip.1080p.seleZen.mkv13.01 GB

Показать еще раздачи по запросу если:
2019-07-15 U Если бы да кабы (2016) HDTVRip 720p от ExKinoRay 2.85 GB ↑ 94 ↓ 34
2019-07-15 U Если бы да кабы (2016) HDTVRip от GeneralFilm 1.45 GB ↑ 40 ↓ 16
2019-06-21 U Если Бил-стрит могла бы заговорить / If Beale Street Could Talk (2018) BDRip от MegaPeer | Лицензия 1.46 GB ↑ 131 ↓ 9
2019-05-26 U Что/если / What/If [S01] (2019) WEB-DL 1080p | SDI Media 15.13 GB ↑ 58 ↓ 52
2019-05-26 U Что/если / What/If [S01] (2019) WEB-DLRip | SDI Media 6.73 GB ↑ 91 ↓ 57
2018-08-19 U Если бы Дон-Жуан был женщиной… / Don Juan ou Si Don Juan était une femme... (1973) DVDRip-AVC | P2 1.58 GB ↑ 62 ↓ 25
2018-05-01 U Если бы я тебя любил... (2010) HDTVRip 1К1.38 GB ↑ 90 ↓ 29

Отзывы
Зарегистрируйтесь чтобы добавить комментарий.
Обратная связь
Copyleft ©