↑↓Torrent.by
Поиск
Логин: Регистрация
Пароль: Восстановить пароль
Загрузка...

Спасибо деду за победу (2019) WEB-DL 1080p | iTunes

Скачать spasibo-dedu-za-pobedu-2019-web-dl-1080p-itunes.torrent
U Магнитная ссылка Размер: 2.91 GB Раздают: 593 Качают: 201 Добавлен: 2019-06-21 19:12:27
Спасибо деду за победу (2019) WEB-DL 1080p | iTunes

Название: Спасибо деду за победу
Год выпуска: 2019
Жанр:  Комедия, семейный
Режиссёр: Теймураз Тания
В ролях: Егор Бероев, Ксения Алферова, Кесоу Хагба, Адгур Малия, Алексей Онежен, Софья Агумава, Теймураз Тания, Артём Быстров, Фархад Махмудов, Саида Отарова

Описание: Обычный городской мальчишка приезжает вместе с папой погостить в деревню к своему дедушке. Там его встречают не очень дружелюбные местные ребята и девочка, в которую он сразу влюбляется. Дедушка постоянно рассказывает смешные байки о своем славном военном прошлом, которые, открывают для него абсолютно новый, волшебный мир, учат главным жизненным ценностям и делают настоящим мужчиной.

Страна: Россия
Студия: Yellown, Black and White, Nart
Продолжительность: 01:24:03
Язык: Русский | iTunes

Файл
Качество: WEB-DL 1080p
Контейнер: MKV
Видео: MPEG4 AVC Video, H264, 2.40:1, 1920x802, 24.000 fps, 4478 kbps
Аудио: Russian: AC3, 6 ch, 384 kbps, 16 bits, 48.0 KHz - iTunes
Субтитры: Нет


[+] MediaInfo
Общее
Уникальный идентификатор                 : 240911532627900014758949422756252817357 (0xB53DDF9B4FFB0C16BE3A8AB47AF717CD)
Полное имя                               : Спасибо.деду.за.победу.2019.WEB-DL.1080p.mkv
Формат                                   : Matroska
Версия формата                           : Version 2
Размер файла                             : 2,91 Гбайт
Продолжительность                        : 1 ч. 24 м.
Общий поток                              : 4961 Кбит/сек
Дата кодирования                         : UTC 2019-06-21 09:06:10
Программа кодирования                    : mkvmerge v5.8.0 ('No Sleep / Pillow') built on Sep  2 2012 15:37:04
Библиотека кодирования                   : libebml v1.2.3 + libmatroska v1.3.0

Видео
Идентификатор                            : 1
Формат                                   : AVC
Формат/Информация                        : Advanced Video Codec
Профиль формата                          : High@L4
Параметр CABAC формата                   : Да
Параметр RefFrames формата               : 5 кадров
Идентификатор кодека                     : V_MPEG4/ISO/AVC
Продолжительность                        : 1 ч. 24 м.
Битрейт                                  : 4478 Кбит/сек
Ширина                                   : 1920 пикселей
Высота                                   : 802 пикселя
Соотношение сторон                       : 2,40:1
Режим частоты кадров                     : Постоянный
Частота кадров                           : 24,000 кадра/сек
Цветовое пространство                    : YUV
Субдискретизация насыщенности            : 4:2:0
Битовая глубина                          : 8 бит
Тип развёртки                            : Прогрессивная
Бит/(Пиксели*Кадры)                      : 0.121
Размер потока                            : 2,63 Гбайт (90%)
Заголовок                                : Спасибо.деду.за.победу.2019.WEB-DL.1080p
Язык                                     : Russian
Default                                  : Да
Forced                                   : Нет
Цветовой диапазон                        : Limited
Основные цвета                           : BT.709
Характеристики трансфера                 : BT.709
Коэффициенты матрицы                     : BT.709

Аудио
Идентификатор                            : 2
Формат                                   : AC-3
Формат/Информация                        : Audio Coding 3
Параметр Endianness формата              : Big
Идентификатор кодека                     : A_AC3
Продолжительность                        : 1 ч. 24 м.
Вид битрейта                             : Постоянный
Битрейт                                  : 384 Кбит/сек
Каналы                                   : 6 каналов
Расположение каналов                     : Front: L C R, Side: L R, LFE
Частота                                  : 48,0 КГц
Частота кадров                           : 31,250 кадров/сек (1536 SPF)
Битовая глубина                          : 16 бит
Метод сжатия                             : С потерями
Размер потока                            : 231 Мбайт (8%)
Заголовок                                : iTunes
Язык                                     : Russian
Default                                  : Да
Forced                                   : Нет

Меню
00:00:00.000                             : en:Глава 1
00:08:41.541                             : en:Глава 2
00:17:09.291                             : en:Глава 3
00:25:46.624                             : en:Глава 4
00:34:09.499                             : en:Глава 5
00:42:17.332                             : en:Глава 6
00:51:01.873                             : en:Глава 7
00:59:21.331                             : en:Глава 8
01:07:42.664                             : en:Глава 9
01:15:08.080                             : en:Глава 10



Скриншоты:
[+] Всего файлов в раздаче - 1:
Спасибо.деду.за.победу.2019.WEB-DL.1080p.mkv2.91 GB

Показать еще раздачи по запросу спасибо:
2019-06-23 U Спасибо деду за победу (2019) WEB-DLRip от Portablius | iTunes 744.85 MB ↑ 95 ↓ 34
2019-06-22 U Спасибо деду за победу (2019) WEB-DLRip-AVC от OlLanDGroup | iTunes 1.46 GB ↑ 55 ↓ 20
2019-06-22 U Спасибо деду за победу (2019) WEB-DLRip-AVC от Files-x | iTunes 1.46 GB ↑ 42 ↓ 14
2019-06-21 U Спасибо деду за победу (2019) WEB-DLRip | iTunes 1.46 GB ↑ 1209 ↓ 329
2019-06-11 U Спасибо за вашу службу / Thank You for Your Service (2017) BDRip от MegaPeer | D 1.46 GB ↑ 41 ↓ 17
2018-08-14 U Гарри Дж. Фридман - Нет, спасибо, я просто смотрю. Как посетителя превратить в покупателя (2018) FB2 3.12 MB ↑ 83 ↓ 5
2018-03-17 U Спасибо за вашу службу / Thank You for Your Service (2017) BDRip 1080p | HDrezka Studio 8.51 GB ↑ 75 ↓ 32

Отзывы
Зарегистрируйтесь чтобы добавить комментарий.
Обратная связь
Copyleft ©