↑↓Torrent.by
Поиск
Логин: Регистрация
Пароль: Восстановить пароль
Загрузка...

Американские животные / American Animals (2018) BDRip 1080p от селезень | iTunes

Скачать amerikanskie-zhivotnye-american-animals-2018-bdrip-1080p-ot-selezen-itunes.torrent
U Магнитная ссылка Размер: 9.51 GB Раздают: 235 Качают: 48 Добавлен: 2019-06-22 05:31:04
Американские животные / American Animals (2018) BDRip 1080p от селезень | iTunes

Название: Американские животные
Оригинальное название: American Animals
Год выхода: 2018
Жанр: Драма, криминал, реальные события
Режиссер: Барт Лэйтон
В ролях: Эван Питерс, Энн Дауд, Барри Кеоган, Блейк Дженнер, Удо Кир, Джаред Абрахамсон, Дрю Старки, Уэйн Дювалл, Лара Грайс, Гэри Басараба

О фильме: Основан на реальных событиях. История четырех молодых людей, которые предпринимают попытку совершить одно из самых дерзких ограблений в истории США - похитить одну из самых дорогих книг в мире - «Птицы Америки» Джона Джеймса Одюбона.

Страна: Великобритания, США
Студия: Film4, New Amsterdam Film Company, RAW
Продолжительность: 01:56:53
Перевод: Профессиональный многоголосый| iTunes

Качество: BDRip 1080p
Видео: MPEG-4 AVC, 1920x816, 9752 Kbit/s, 23.976 fps
Звук:
Аудио #01: 48 kHz, AC3, 5.1, 384 Kbps | Профессиональный многоголосый | RUS |
Аудио #02: 48 kHz, DTS, 5.1, 1510 Kbps | Оригинал |  ENG |
Субтитры: Русские (Forced, full), английские

Релиз:


[+] MI
General
Unique ID                   : 239618479433704623183057804085084302987 (0xB444D7298004DAAAD5C2BF58ADE02E8B)
Complete name               : D:Video111American.Animals.2018.BDRip.1080p.seleZen.mkv
Format                      : Matroska
Format version              : Version 4
File size                   : 9.51 GiB
Duration                    : 1 h 56 min
Overall bit rate            : 11.6 Mb/s
Movie name                  : American Animals 2018 from селезень
Encoded date                : UTC 2019-06-21 13:29:03
Writing application         : mkvmerge v33.1.0 ('Primrose') 64-bit
Writing library             : libebml v1.3.7 + libmatroska v1.5.0

Video
ID                          : 1
Format                      : AVC
Format/Info                 : Advanced Video Codec
Format profile              : High@L4.1
Format settings             : CABAC / 5 Ref Frames
Format settings, CABAC      : Yes
Format settings, Reference  : 5 frames
Codec ID                    : V_MPEG4/ISO/AVC
Duration                    : 1 h 56 min
Bit rate                    : 9 752 kb/s
Width                       : 1 920 pixels
Height                      : 816 pixels
Display aspect ratio        : 2.35:1
Frame rate mode             : Constant
Frame rate                  : 23.976 (24000/1001) FPS
Color space                 : YUV
Chroma subsampling          : 4:2:0
Bit depth                   : 8 bits
Scan type                   : Progressive
Bits/(Pixel*Frame)          : 0.260
Stream size                 : 7.96 GiB (84%)
Writing library             : x264 core 142 r2431+42 c69a006 tMod [8-bit@4:2:0 X86_64]
Encoding settings           : cabac=1 / ref=5 / deblock=1:-3:-3 / analyse=0x3:0x113 / me=umh / subme=10 / psy=1 / fade_compensate=0.00 / psy_rd=1.00:0.05 / mixed_ref=1 / me_range=48 / chroma_me=1 / trellis=2 / 8x8dct=1 / cqm=0 / deadzone=21,11 / fast_pskip=0 / chroma_qp_offset=-2 / threads=48 / lookahead_threads=6 / sliced_threads=0 / nr=0 / decimate=1 / interlaced=0 / bluray_compat=0 / constrained_intra=0 / fgo=0 / bframes=8 / b_pyramid=2 / b_adapt=2 / b_bias=0 / direct=3 / weightb=1 / open_gop=0 / weightp=2 / keyint=250 / keyint_min=23 / scenecut=40 / intra_refresh=0 / rc_lookahead=40 / rc=crf / mbtree=0 / crf=15.6000 / qcomp=0.60 / qpmin=0:0:0 / qpmax=69:69:69 / qpstep=4 / vbv_maxrate=40000 / vbv_bufsize=30000 / crf_max=0.0 / nal_hrd=none / filler=0 / ip_ratio=1.40 / pb_ratio=1.30 / aq=3:0.80 / aq-sensitivity=10.00 / aq-factor=1.00:1.00:1.00 / aq2=0 / aq3=0
Language                    : English
Default                     : Yes
Forced                      : No
Color range                 : Limited
Matrix coefficients         : BT.709

Audio #1
ID                          : 2
Format                      : AC-3
Format/Info                 : Audio Coding 3
Commercial name             : Dolby Digital
Codec ID                    : A_AC3
Duration                    : 1 h 56 min
Bit rate mode               : Constant
Bit rate                    : 384 kb/s
Channel(s)                  : 6 channels
Channel layout              : L R C LFE Ls Rs
Sampling rate               : 48.0 kHz
Frame rate                  : 31.250 FPS (1536 SPF)
Bit depth                   : 16 bits
Compression mode            : Lossy
Stream size                 : 321 MiB (3%)
Title                       : iTunes
Language                    : Russian
Service kind                : Complete Main
Default                     : Yes
Forced                      : Yes

Audio #2
ID                          : 3
Format                      : DTS
Format/Info                 : Digital Theater Systems
Codec ID                    : A_DTS
Duration                    : 1 h 56 min
Bit rate mode               : Constant
Bit rate                    : 1 509 kb/s
Channel(s)                  : 6 channels
Channel layout              : C L R Ls Rs LFE
Sampling rate               : 48.0 kHz
Frame rate                  : 93.750 FPS (512 SPF)
Bit depth                   : 24 bits
Compression mode            : Lossy
Stream size                 : 1.23 GiB (13%)
Title                       : Original
Language                    : English
Default                     : No
Forced                      : No

Text #1
ID                          : 4
Format                      : UTF-8
Codec ID                    : S_TEXT/UTF8
Codec ID/Info               : UTF-8 Plain Text
Duration                    : 1 h 51 min
Bit rate                    : 3 b/s
Count of elements           : 35
Stream size                 : 2.50 KiB (0%)
Title                       : Forced
Language                    : Russian
Default                     : Yes
Forced                      : Yes

Text #2
ID                          : 5
Format                      : UTF-8
Codec ID                    : S_TEXT/UTF8
Codec ID/Info               : UTF-8 Plain Text
Duration                    : 1 h 51 min
Bit rate                    : 90 b/s
Count of elements           : 1412
Stream size                 : 73.8 KiB (0%)
Title                       : Full
Language                    : Russian
Default                     : No
Forced                      : No

Text #3
ID                          : 6
Format                      : UTF-8
Codec ID                    : S_TEXT/UTF8
Codec ID/Info               : UTF-8 Plain Text
Duration                    : 1 h 56 min
Bit rate                    : 88 b/s
Count of elements           : 1660
Stream size                 : 75.7 KiB (0%)
Title                       : SDH
Language                    : English
Default                     : No
Forced                      : No

Menu
00:00:00.000                : en:00:00:00.000
00:06:57.584                : en:00:06:57.584
00:14:58.856                : en:00:14:58.856
00:21:21.947                : en:00:21:21.947
00:27:23.809                : en:00:27:23.809
00:36:22.806                : en:00:36:22.806
00:41:42.124                : en:00:41:42.124
00:48:53.305                : en:00:48:53.305
00:54:59.296                : en:00:54:59.296
01:04:23.067                : en:01:04:23.067
01:11:11.767                : en:01:11:11.767
01:16:28.375                : en:01:16:28.375
01:24:47.707                : en:01:24:47.707
01:30:18.997                : en:01:30:18.997
01:37:15.788                : en:01:37:15.788
01:45:36.455                : en:01:45:36.455



Скриншоты:
[+] Всего файлов в раздаче - 1:
American.Animals.2018.BDRip.1080p.seleZen.mkv9.51 GB

Показать еще раздачи по запросу американские:
2019-06-22 U Американские животные / American Animals (2018) BDRemux 1080p от селезень | iTunes 31.02 GB ↑ 25 ↓ 14
2019-06-22 U Американские животные / American Animals (2018) BDRip-AVC от HELLYWOOD | iTunes 2.86 GB ↑ 34 ↓ 14
2019-06-22 U Американские животные / American Animals (2018) BDRip от MegaPeer | iTunes 746.32 MB ↑ 35 ↓ 3
2019-06-21 U Американские животные / American Animals (2018) BDRip-AVC от OlLanDGroup | D, P | iTunes 2.37 GB ↑ 78 ↓ 45
2019-06-21 U Американские животные / American Animals (2018) BDRip от MegaPeer | iTunes 1.41 GB ↑ 93 ↓ 52
2019-05-05 U Американские боги / American Gods [S02] (2019) WEB-DLRip | LostFilm 5.24 GB ↑ 111 ↓ 45
2019-05-03 U Американские боги / American Gods [S02] (2019) WEB-DL 1080p | LostFilm 29.71 GB ↑ 80 ↓ 143

Отзывы
Зарегистрируйтесь чтобы добавить комментарий.
Обратная связь
Copyleft ©