↑↓Torrent.by
Поиск
Логин: Регистрация
Пароль: Восстановить пароль
Загрузка...

Прямая линия с Владимиром Путиным (2019) HDTVRip 720p

Скачать pryamaya-liniya-s-vladimirom-putinym-2019-hdtvrip-720p.torrent
U Магнитная ссылка Размер: 4.78 GB Раздают: 37 Качают: 15 Добавлен: 2019-06-22 05:32:10
Прямая линия с Владимиром Путиным (2019) HDTVRip 720p

Название: Прямая линия с Владимиром Путиным. Эфир от 20.06.2019
Телекомпания: Первый канал HD
Жанр:  Политика, Телепередача

Описание:
Специальная программа, в ходе которой президент отвечает на вопросы, касающиеся общественно-политической и социально-экономической жизни страны. Задавать вопросы могут не только приглашенные в студию программы гости, но и граждане в ходе прямых включений из городов России.
Прямая трансляция 16-й специальной программы «Прямая линия с Владимиром Путиным». Общение длилось более 4-х часов. Всего поступило более 2 миллионов обращений. В прямом эфире Президент успел ответить почти на 70 из них...

Продолжительность: 04:09:34
Качество видео: HDTVRip
Субтитры: отсутствуют

Семпл

Видео: AVC/H.264, 1280x720 (16:9), ~2610 Kbps
Аудио: AAC, 2 ch, 128 Kbps
[+] MediaInfo:

General
Unique ID                   : 297838935839703286368459062331142884863 (0xE011B14895CBAC2852AB37169708CDFF)
Complete name               : D:FilmПрямая линия с Владимиром Путиным 2019.mkv
Format                      : Matroska
Format version              : Version 4
File size                   : 4.78 GiB
Duration                    : 4 h 9 min
Overall bit rate            : 2 741 kb/s
Encoded date                : UTC 2019-06-20 14:06:45
Writing application         : mkvmerge v34.0.0 ('Sight and Seen') 64-bit
Writing library             : libebml v1.3.7 + libmatroska v1.5.0
Cover                       : Yes
Attachments                 : cover.png

Video
ID                          : 1
Format                      : AVC
Format/Info                 : Advanced Video Codec
Format profile              : High@L3.1
Format settings             : CABAC / 2 Ref Frames
Format settings, CABAC      : Yes
Format settings, ReFrames   : 2 frames
Codec ID                    : V_MPEG4/ISO/AVC
Duration                    : 4 h 9 min
Bit rate                    : 2 611 kb/s
Width                       : 1 280 pixels
Height                      : 720 pixels
Display aspect ratio        : 16:9
Frame rate mode             : Constant
Frame rate                  : 25.000 FPS
Color space                 : YUV
Chroma subsampling          : 4:2:0
Bit depth                   : 8 bits
Scan type                   : Progressive
Bits/(Pixel*Frame)          : 0.113
Stream size                 : 4.55 GiB (95%)
Language                    : Russian
Default                     : Yes
Forced                      : No

Audio
ID                          : 2
Format                      : AAC LC
Format/Info                 : Advanced Audio Codec Low Complexity
Codec ID                    : A_AAC-2
Duration                    : 4 h 9 min
Bit rate                    : 128 kb/s
Channel(s)                  : 2 channels
Channel layout              : L R
Sampling rate               : 44.1 kHz
Frame rate                  : 43.066 FPS (1024 SPF)
Compression mode            : Lossy
Stream size                 : 228 MiB (5%)
Language                    : Russian
Default                     : Yes
Forced                      : No



Скриншоты:
[+] Всего файлов в раздаче - 1:
Прямая линия с Владимиром Путиным 2019.mkv4.78 GB

Похожие раздачи по запросу - прямая:
2019-04-20 U Дебаты Зеленского и Порошенко. Прямая трансляция [19.04] (2019) WEBRip 972.92 MB ↑ 220 ↓ 60
2014-04-18 U Прямая линия с Владимиром Путиным [эфир от 17.04] (2014) HDTV 1080i 12.96 GB ↑ 45 ↓ 35
2014-04-18 U Прямая линия с Владимиром Путиным (2014) SATRip | FilmRus 3.03 GB ↑ 276 ↓ 145

Отзывы
Зарегистрируйтесь чтобы добавить комментарий.
Обратная связь
Copyleft ©