↑↓Torrent.by
Поиск
Логин: Регистрация
Пароль: Восстановить пароль
Загрузка...

Семь пар нечистых (2018) WEBRip от GeneralFilm

Скачать sem-par-nechistyh-2018-webrip-ot-generalfilm.torrent
U Магнитная ссылка Размер: 1.09 GB Раздают: 117 Качают: 29 Добавлен: 2019-06-22 19:11:29
Семь пар нечистых (2018) WEBRip от GeneralFilm

Оригинальное название: Семь пар нечистых
Год выпуска: 2018
Жанр:  Военный, драма, криминал
Выпущено: Россия, «АРК фильм» при поддержке «Фонд кино»
Режиссер: Кирилл Астахов, Юрий Ильин
В ролях: Юрий Борисов (II), Мари Ворожи, Василий Мищенко, Тимофей Трибунцев, Михаил Евланов, Александр Вершинин, Евгений Куршинский, Микаэл Джанибекян, Бесо Гатаев, Кирилл Белевич-Оболенский, Александр Алёшкин, Максим Браматкин, Станислав Курач, Артём Мельничук, Александр Коротков (II), Александр Ковалёв (II), Вадим Утенков, Константин Спиркин, Егор Клеймёнов, Азамат Нигманов, Кирилл Белевич, Руслан Ягудин, Алексей Кашников, Александр Воробьёв

О фильме: По мотивам одноименной повести Вениамина Каверина. 1941 г. Бунт на корабле — это всегда страшно. Особенно, если это бунт заключенных против охраны: из людей выплескивается ненависть, от которой некуда деться в открытом море. Этот бунт может привести к смерти не только охраны судна, но и матросов, и лейтенанта Сбоева, плывущего с секретным грузом, и случайной пассажирки — военврача Нины. Зачинщик бунта заключенный Аламасов продумал все детали, но не учел одного: корабль под названием «Онега» вышел в море 21 июня 1941 года, и когда мятеж почти увенчался успехом, судно начинают бомбить немецкие истребители.

Качество: WEBRip
Видео: XviD build 73, 720x304 (2.37:1), 25.000 fps, 1783 Kbps (0.326 bit/pixel)
Аудио: 48.0 kHz, AC3, 2/0 ch, 192 kbps
Продолжительность: 01:18:26
Перевод: Не требуется [Русский]
Cубтитры: нет

Релиз:


[+] MediaInfo
General
Complete name               : D:RazdachiSemj.Par.Nechistyh.WEBRip.Generalfilm.avi
Format                      : AVI
Format/Info                 : Audio Video Interleave
File size                   : 1.09 GiB
Duration                    : 1 h 18 min
Overall bit rate            : 1 985 kb/s
Writing application         : VirtualDubMod 1.5.10.3 | www.virtualdub-fr.org || (build 2550/release)
Writing library             : VirtualDubMod build 2550/release

Video
ID                          : 0
Format                      : MPEG-4 Visual
Format profile              : Advanced Simple@L5
Format settings             : BVOP1 / Custom Matrix
Format settings, BVOP       : 1
Format settings, QPel       : No
Format settings, GMC        : No warppoints
Format settings, Matrix     : Custom
Codec ID                    : XVID
Codec ID/Hint               : XviD
Duration                    : 1 h 18 min
Bit rate                    : 1 783 kb/s
Width                       : 720 pixels
Height                      : 304 pixels
Display aspect ratio        : 2.35:1
Frame rate                  : 25.000 FPS
Color space                 : YUV
Chroma subsampling          : 4:2:0
Bit depth                   : 8 bits
Scan type                   : Progressive
Compression mode            : Lossy
Bits/(Pixel*Frame)          : 0.326
Stream size                 : 1 000 MiB (90%)
Writing library             : XviD 73

Audio
ID                          : 1
Format                      : AC-3
Format/Info                 : Audio Coding 3
Commercial name             : Dolby Digital
Codec ID                    : 2000
Duration                    : 1 h 18 min
Bit rate mode               : Constant
Bit rate                    : 192 kb/s
Channel(s)                  : 2 channels
Channel layout              : L R
Sampling rate               : 48.0 kHz
Frame rate                  : 31.250 FPS (1536 SPF)
Bit depth                   : 16 bits
Compression mode            : Lossy
Stream size                 : 108 MiB (10%)
Alignment                   : Split accross interleaves
Interleave, duration        : 40  ms (1.00 video frame)
Interleave, preload duratio : 500  ms
Service kind                : Complete Main



Скриншоты:
[+] Всего файлов в раздаче - 1:
Semj.Par.Nechistyh.WEBRip.Generalfilm.avi1.09 GB

Показать еще раздачи по запросу семь:
2019-06-23 U Семь пар нечистых (2018) WEB-DLRip-AVC от New-Team 745.30 MB ↑ 67 ↓ 22
2019-06-22 U Семь пар нечистых (2018) WEB-DLRip-AVC от New-Team 1.45 GB ↑ 184 ↓ 56
2019-06-22 U Семь пар нечистых (2018) WEBRip от Files-x 1К747.56 MB ↑ 206 ↓ 39
2019-06-22 U Семь пар нечистых (2018) WEBRip от Files-x 1.37 GB ↑ 311 ↓ 163
2019-06-22 U Семь пар нечистых (2018) WEBRip от ExKinoRay 1.07 GB ↑ 83 ↓ 12
2019-06-22 U Семь пар нечистых (2018) WEBRip-AVC от Files-x 1.37 GB ↑ 60 ↓ 29
2019-06-22 U Семь пар нечистых (2018) WEBRip 720p от ExKinoRay 2.29 GB ↑ 113 ↓ 29

Отзывы
Зарегистрируйтесь чтобы добавить комментарий.
Обратная связь
Copyleft ©