↑↓Torrent.by
Поиск
Логин: Регистрация
Пароль: Восстановить пароль
Загрузка...

Волшебный парк Джун / Wonder Park (2019) BDRip-HEVC 1080p | iTunes

Скачать volshebnyy-park-dzhun-wonder-2019-bdrip-hevc-1080p-itunes.torrent
U Магнитная ссылка Размер: 4.82 GB Раздают: 100 Качают: 19 Добавлен: 2019-06-23 14:51:47
Волшебный парк Джун / Wonder Park (2019) BDRip-HEVC 1080p | iTunes

Название: Волшебный парк Джун
Оригинальное название: Wonder Park
Год выхода: 2019
Жанр: Мультфильм, фэнтези, комедия, приключения, семейный

Режиссер: Джош Аппелбаум, Дэвид Фейсс

В ролях: София Мали, Дженнифер Гарнер, Кен Хадсон Кэмпбелл, Кенан Томпсон, Мила Кунис, Джон Оливер, Кен Жонг, Норберт Лео Батц, Мэттью Бродерик, Брианна Денски

О фильме: Однажды фантазерка Джун обнаруживает, что придуманный ею чудесный Парк развлечений реален! Но его существование под угрозой, и Джун нужен план спасения ее Мечты. Помогут девочке ее новые друзья — волшебные звери Парка.

Страна: Испания, США
Продолжительность: 01:25:17
Перевод:Профессиональный (полное дублирование) | iTunes

Файл
Кодек: H.265
Качество: BDRip-HEVC 1080p
Видео: HEVC, 1920x800 (2.40:1), 23.976 fps, 6 868 kb/s
Аудио 1: AC-3, 48.0 kHz, 6 ch, 384 kb/s (Russian)
Аудио 2: AC-3, 48.0 kHz, 2 ch, 192 kb/s (Ukrainian)
Аудио 3: AC-3, 48.0 kHz, 6 ch, 640 kb/s (English)
Субтитры: Русские (форс., полные), украинские (форс.), английские (полные)

Семпл


[+] MI
General
Unique ID                                : 200273351935424620356647644076129462880 (0x96AB3E9B30D8A0CB8E8C2844CD252A60)
Complete name                            : Wonder Park 2019.BDRip.1080p.HEVC..mkv
Format                                   : Matroska
Format version                           : Version 4
File size                                : 4.82 GiB
Duration                                 : 1 h 25 min
Overall bit rate                         : 8 086 kb/s
Encoded date                             : UTC 2019-06-21 21:43:10
Writing application                      : mkvmerge v8.3.0 ('Over the Horizon') 64bit
Writing library                          : libebml v1.3.1 + libmatroska v1.4.2

Video
ID                                       : 1
Format                                   : HEVC
Format/Info                              : High Efficiency Video Coding
Format profile                           : Main 10@L4.1@High
Codec ID                                 : V_MPEGH/ISO/HEVC
Duration                                 : 1 h 25 min
Bit rate                                 : 6 868 kb/s
Width                                    : 1 920 pixels
Height                                   : 800 pixels
Display aspect ratio                     : 2.40:1
Frame rate mode                          : Constant
Frame rate                               : 23.976 (24000/1001) FPS
Color space                              : YUV
Chroma subsampling                       : 4:2:0
Bit depth                                : 10 bits
Bits/(Pixel*Frame)                       : 0.186
Stream size                              : 4.09 GiB (85%)
Language                                 : English
Default                                  : Yes
Forced                                   : No
Color range                              : Limited
Color primaries                          : BT.709
Transfer characteristics                 : BT.709
Matrix coefficients                      : BT.709

Audio #1
ID                                       : 2
Format                                   : AC-3
Format/Info                              : Audio Coding 3
Commercial name                          : Dolby Digital
Codec ID                                 : A_AC3
Duration                                 : 1 h 25 min
Bit rate mode                            : Constant
Bit rate                                 : 384 kb/s
Channel(s)                               : 6 channels
Channel layout                           : L R C LFE Ls Rs
Sampling rate                            : 48.0 kHz
Frame rate                               : 31.250 FPS (1536 SPF)
Bit depth                                : 16 bits
Compression mode                         : Lossy
Stream size                              : 234 MiB (5%)
Title                                    : iTunes
Language                                 : Russian
Default                                  : Yes
Forced                                   : No

Audio #2
ID                                       : 3
Format                                   : AC-3
Format/Info                              : Audio Coding 3
Commercial name                          : Dolby Digital
Codec ID                                 : A_AC3
Duration                                 : 1 h 25 min
Bit rate mode                            : Constant
Bit rate                                 : 192 kb/s
Channel(s)                               : 2 channels
Channel layout                           : L R
Sampling rate                            : 48.0 kHz
Frame rate                               : 31.250 FPS (1536 SPF)
Bit depth                                : 16 bits
Compression mode                         : Lossy
Stream size                              : 117 MiB (2%)
Title                                    : iTunes
Language                                 : Ukrainian
Default                                  : No
Forced                                   : No

Audio #3
ID                                       : 4
Format                                   : AC-3
Format/Info                              : Audio Coding 3
Commercial name                          : Dolby Digital
Codec ID                                 : A_AC3
Duration                                 : 1 h 25 min
Bit rate mode                            : Constant
Bit rate                                 : 640 kb/s
Channel(s)                               : 6 channels
Channel layout                           : L R C LFE Ls Rs
Sampling rate                            : 48.0 kHz
Frame rate                               : 31.250 FPS (1536 SPF)
Bit depth                                : 16 bits
Compression mode                         : Lossy
Stream size                              : 390 MiB (8%)
Language                                 : English
Default                                  : No
Forced                                   : No

Text #1
ID                                       : 5
Format                                   : UTF-8
Codec ID                                 : S_TEXT/UTF8
Codec ID/Info                            : UTF-8 Plain Text
Duration                                 : 1 h 1 min
Bit rate                                 : 0 b/s
Count of elements                        : 4
Stream size                              : 124 Bytes (0%)
Title                                    : Forced
Language                                 : Russian
Default                                  : Yes
Forced                                   : Yes

Text #2
ID                                       : 6
Format                                   : UTF-8
Codec ID                                 : S_TEXT/UTF8
Codec ID/Info                            : UTF-8 Plain Text
Duration                                 : 1 h 17 min
Bit rate                                 : 99 b/s
Count of elements                        : 1116
Stream size                              : 56.4 KiB (0%)
Title                                    : Full
Language                                 : Russian
Default                                  : No
Forced                                   : No

Text #3
ID                                       : 7
Format                                   : UTF-8
Codec ID                                 : S_TEXT/UTF8
Codec ID/Info                            : UTF-8 Plain Text
Duration                                 : 1 h 4 min
Bit rate                                 : 0 b/s
Count of elements                        : 4
Stream size                              : 101 Bytes (0%)
Title                                    : Forced
Language                                 : Ukrainian
Default                                  : No
Forced                                   : No

Text #4
ID                                       : 8
Format                                   : UTF-8
Codec ID                                 : S_TEXT/UTF8
Codec ID/Info                            : UTF-8 Plain Text
Duration                                 : 1 h 17 min
Bit rate                                 : 64 b/s
Count of elements                        : 1105
Stream size                              : 36.6 KiB (0%)
Title                                    : Full
Language                                 : English
Default                                  : No
Forced                                   : No

Menu
00:00:00.000                             : :Chapter 01
00:06:34.811                             : :Chapter 02
00:12:05.474                             : :Chapter 03
00:20:22.846                             : :Chapter 04
00:25:49.589                             : :Chapter 05
00:33:03.648                             : :Chapter 06
00:39:14.185                             : :Chapter 07
00:47:39.648                             : :Chapter 08
00:54:39.442                             : :Chapter 09
01:00:32.462                             : :Chapter 10
01:06:17.807                             : :Chapter 11
01:13:12.054                             : :Chapter 12
01:17:49.748                             : :Chapter 13



Скриншоты:
[+] Всего файлов в раздаче - 1:
Wonder Park 2019.BDRip.1080p.HEVC..mkv4.82 GB

Показать еще раздачи по запросу волшебный:
2019-06-24 U Волшебный парк Джун / Wonder Park (2019) HDRip от Portablius | iTunes 787.33 MB ↑ 48 ↓ 20
2019-06-21 U Волшебный парк Джун / Wonder Park (2019) BDRemux 1080p от селезень | iTunes 19.42 GB ↑ 60 ↓ 24
2019-06-21 U Волшебный парк Джун / Wonder Park (2019) BDRip-AVC от ExKinoRay | iTunes 2.28 GB ↑ 103 ↓ 22
2019-06-20 U Волшебный парк Джун / Wonder Park (2019) BDRip 1080p от селезень | iTunes 8.32 GB ↑ 128 ↓ 94
2013-12-28 U Волшебный клубок. 700 схем и образцов. Курс по вязанию (спицы) [2007, PDF, RUS] 3К137.98 MB ↑ 1351 ↓ 303
2013-10-31 U Красавица и чудовище 3: Волшебный мир Бель / Beauty and the Beast 3: Belle's Magical World (1998) DVDRip 1.37 GB ↑ 485 ↓ 13
2013-10-26 U Волшебный клад (1950) DVDRip 128.52 MB ↑ 14 ↓ 6

Отзывы
Зарегистрируйтесь чтобы добавить комментарий.
Обратная связь
Copyleft ©