↑↓Torrent.by
Поиск
Логин: Регистрация
Пароль: Восстановить пароль
Загрузка...

72 часа (2015) HDTVRip от GeneralFilm

Скачать 72-chasa-2015-hdtvrip-ot-generalfilm.torrent
U Магнитная ссылка Размер: 746.41 MB Раздают: 58 Качают: 13 Добавлен: 2019-06-24 07:13:28
72 часа (2015) HDTVRip от GeneralFilm

Оригинальное название: 72 часа
Год выпуска: 2015
Жанр:  Военный, драма
Выпущено: Россия, Киностудия Соль, Продюсерская компания Николая Расторгуева
Режиссер: Кира Ангелина
В ролях: Елизавета Арзамасова, Митя Лабуш, Ирина Розанова, Александр Зельский, Алексей Шевченков, Анатолий Гущин, Татьяна Лютаева, Артур Псакин, Дмитрий Подадаев, Фёдор Леонов, Анастасия Королькова, Николай Сахаров, Александр Касаткин (II), Татьяна Чепелевич, Наталья Третьякова

О фильме: В самом начале Великой Отечественной войны крохотный городок Ставрово оказывается в эпицентре большой истории. Его расположение, близость линии фронта, железная дорога, перекресток нескольких дорог привели в город крупный гарнизон немцев. Но в городе действует подполье, состоящее, в основном, из вчерашних школьников. Это история противостояния двух молодых людей, двух жизненных позиций — комсомольца Алексея и предателя Дмитрия. Оба молоды, оба читали одни и те же книжки в детстве, учились в одной школе, любили одну девушку. Но первый, не задумываясь, отдал жизнь за то, что считал священным — за Родину, а второй самозабвенно мучил и убивал своих же соотечественников, соседей, знакомых, бывших одноклассников.

Качество: HDTVRip
Видео: XviD build 73, 720x304 (2.37:1), 25.000 fps, 910 Kbps (0.166 bit/pixel)
Аудио: 48.0 kHz, MP3, 2/0 ch, 128 kbps
Продолжительность: 01:39:38
Перевод: Не требуется [Русский]
Cубтитры: нет

Релиз:


[+] MediaInfo
General
Complete name               : D:Razdachi72.Chasa.2015.HDTVRip.GeneralFilm.avi
Format                      : AVI
Format/Info                 : Audio Video Interleave
File size                   : 746 MiB
Duration                    : 1 h 39 min
Overall bit rate            : 1 047 kb/s
Writing application         : VirtualDubMod 1.5.10.3 | www.virtualdub-fr.org || (build 2550/release)
Writing library             : VirtualDubMod build 2550/release

Video
ID                          : 0
Format                      : MPEG-4 Visual
Format profile              : Advanced Simple@L5
Format settings             : BVOP1 / Custom Matrix
Format settings, BVOP       : 1
Format settings, QPel       : No
Format settings, GMC        : No warppoints
Format settings, Matrix     : Custom
Codec ID                    : XVID
Codec ID/Hint               : XviD
Duration                    : 1 h 39 min
Bit rate                    : 910 kb/s
Width                       : 720 pixels
Height                      : 304 pixels
Display aspect ratio        : 2.35:1
Frame rate                  : 25.000 FPS
Color space                 : YUV
Chroma subsampling          : 4:2:0
Bit depth                   : 8 bits
Scan type                   : Progressive
Compression mode            : Lossy
Bits/(Pixel*Frame)          : 0.166
Stream size                 : 648 MiB (87%)
Writing library             : XviD 73

Audio
ID                          : 1
Format                      : MPEG Audio
Format version              : Version 1
Format profile              : Layer 3
Codec ID                    : 55
Codec ID/Hint               : MP3
Duration                    : 1 h 39 min
Bit rate mode               : Constant
Bit rate                    : 128 kb/s
Channel(s)                  : 2 channels
Sampling rate               : 48.0 kHz
Frame rate                  : 41.667 FPS (1152 SPF)
Compression mode            : Lossy
Stream size                 : 91.2 MiB (12%)
Alignment                   : Aligned on interleaves
Interleave, duration        : 40  ms (1.00 video frame)
Interleave, preload duratio : 504  ms
Writing library             : LAME3.99r
Encoding settings           : -m s -V 4 -q 2 -lowpass 17 -b 128



Скриншоты:
[+] Всего файлов в раздаче - 1:
72.Chasa.2015.HDTVRip.GeneralFilm.avi746.41 MB

Показать еще раздачи по запросу часа:
2019-06-24 U 72 часа (2015) HDTVRip-AVC от New-Team 1.45 GB ↑ 102 ↓ 30
2019-06-23 U 72 часа (2015) HDTVRip-AVC от Files-x 1.37 GB ↑ 83 ↓ 21
2018-06-11 U 24 часа (2000) DVDRip-AVC от ExKinoRay 746.51 MB ↑ 295 ↓ 12
2018-01-26 U 24 часа на жизнь / 24 Hours to Live (2017) BDRip 1080p от ExKinoRay | iTunes 8.68 GB ↑ 259 ↓ 120
2018-01-26 U 24 часа на жизнь / 24 Hours to Live (2017) HDRip от MegaPeer | iTunes 1.46 GB ↑ 3396 ↓ 77
2017-11-26 U 24 часа на жизнь / 24 Hours to Live (2017) WEB-DLRip от Scarabey | iTunes 1.45 GB ↑ 257 ↓ 72
2017-11-24 U 24 часа на жизнь / 24 Hours to Live (2017) WEB-DLRip-AVC от ExKinoRay | iTunes 746.61 MB ↑ 173 ↓ 44

Отзывы
Зарегистрируйтесь чтобы добавить комментарий.
Обратная связь
Copyleft ©