↑↓Torrent.by
Поиск
Логин: Регистрация
Пароль: Восстановить пароль
Загрузка...

Братство (2019) WEB-DLRip от GeneralFilm | iTunes

Скачать bratstvo-2019-web-dlrip-ot-generalfilm-itunes.torrent
U Магнитная ссылка Размер: 1.46 GB Раздают: 242 Качают: 203 Добавлен: 2019-06-24 07:13:37
Братство (2019) WEB-DLRip от GeneralFilm | iTunes

Оригинальное название: Братство
Год выпуска: 2019
Жанр:  Драма, боевик, история, военный
Выпущено: Россия, Мастерская Павла Лунгина
Режиссер: Павел Лунгин
В ролях: Кирилл Пирогов, Ян Цапник, Виталий Кищенко, Фёдор Лавров, Олег Васильков, Антон Момот, Михаил Кремер, Кирилл Ермичев, Роман Колотухин, Василий Буткевич

О фильме: 1988 год, канун вывода советских войск из Афганистана. Командование 108-й мотострелковой дивизии планирует отход через перевал Саланг, подконтрольный группировке моджахедов Инженера Хошема. Разведка пытается договориться о перемирии с душманами, но дело осложняется тем, что в плен к Хошему попадает советский военный пилот. Начинается сложная игра, в которой переплетаются противоположные интересы множества самых разных людей: штабистов, исламистов, спецназа, разведки, чиновников из афганского правительства, сотрудников советских спецслужб, таджиков и пуштунов. А в самом центре этого водоворота оказываются солдаты разведроты, для которых важнее любых политических соображений остается правило — не бросать своих.

Качество: WEB-DLRip
Видео: XviD build 73, 720x400 (16:9), 24.000 fps, 1460 Kbps (0.211 bit/pixel)
Аудио: 48.0 kHz, AC3 Dolby Digital, 5/1 (L C R, Side: L R, LFE) ch, 384 kbps
Продолжительность: 01:52:28
Перевод: Не требуется [Русский]
Cубтитры: Русские [на иностранную речь]

Релиз:


[+] MediaInfo
General
Complete name               : D:RazdachiBratstvo.2019.WEB-DLRip.GeneralFilm.avi
Format                      : AVI
Format/Info                 : Audio Video Interleave
File size                   : 1.46 GiB
Duration                    : 1 h 52 min
Overall bit rate            : 1 854 kb/s
Writing application         : VirtualDubMod 1.5.10.3 | www.virtualdub-fr.org || (build 2550/release)
Writing library             : VirtualDubMod build 2550/release

Video
ID                          : 0
Format                      : MPEG-4 Visual
Format profile              : Advanced Simple@L5
Format settings             : BVOP1 / Custom Matrix
Format settings, BVOP       : 1
Format settings, QPel       : No
Format settings, GMC        : No warppoints
Format settings, Matrix     : Custom
Codec ID                    : XVID
Codec ID/Hint               : XviD
Duration                    : 1 h 52 min
Bit rate                    : 1 460 kb/s
Width                       : 720 pixels
Height                      : 400 pixels
Display aspect ratio        : 16:9
Frame rate                  : 24.000 FPS
Color space                 : YUV
Chroma subsampling          : 4:2:0
Bit depth                   : 8 bits
Scan type                   : Progressive
Compression mode            : Lossy
Bits/(Pixel*Frame)          : 0.211
Stream size                 : 1.15 GiB (79%)
Writing library             : XviD 73

Audio
ID                          : 1
Format                      : AC-3
Format/Info                 : Audio Coding 3
Commercial name             : Dolby Digital
Codec ID                    : 2000
Duration                    : 1 h 52 min
Bit rate mode               : Constant
Bit rate                    : 384 kb/s
Channel(s)                  : 6 channels
Channel layout              : L R C LFE Ls Rs
Sampling rate               : 48.0 kHz
Frame rate                  : 31.250 FPS (1536 SPF)
Bit depth                   : 16 bits
Compression mode            : Lossy
Stream size                 : 309 MiB (21%)
Alignment                   : Split accross interleaves
Interleave, duration        : 42  ms (1.00 video frame)
Interleave, preload duratio : 500  ms
Service kind                : Complete Main



Скриншоты:
[+] Всего файлов в раздаче - 1:
Bratstvo.2019.WEB-DLRip.GeneralFilm.avi1.46 GB

Показать еще раздачи по запросу братство:
2019-06-29 U Братство (2019) WEB-DLRip-AVC | iTunes 1.08 GB ↑ 129 ↓ 25
2019-06-27 U Братство (2019) WEB-DLRip от Scarabey | iTunes 745.69 MB ↑ 114 ↓ 18
2019-06-27 U Братство (2019) WEB-DLRip от Scarabey | iTunes 1.45 GB ↑ 191 ↓ 55
2019-06-25 U Братство (2019) WEB-DLRip-AVC | iTunes 744.68 MB ↑ 48 ↓ 14
2019-06-25 U Братство (2019) WEB-DLRip-AVC от New-Team 1.45 GB ↑ 54 ↓ 14
2019-06-25 U Братство (2019) WEB-DLRip от Generalfilm | КПК | iTunes 426.38 MB ↑ 39 ↓ 9
2019-06-25 U Братство (2019) WEB-DLRip-AVC от New-Team 744.80 MB ↑ 52 ↓ 16

Отзывы
Зарегистрируйтесь чтобы добавить комментарий.
Обратная связь
Copyleft ©