↑↓Torrent.by
Поиск
Логин: Регистрация
Пароль: Восстановить пароль
Загрузка...

Братство (2019) WEB-DL 1080p | iTunes

Скачать bratstvo-2019-web-dl-1080p-itunes.torrent
U Магнитная ссылка Размер: 4.45 GB Раздают: 297 Качают: 263 Добавлен: 2019-06-24 07:13:43
Братство (2019) WEB-DL 1080p | iTunes

Название: Братство
Год выхода: 2019
Жанр: Драма, боевик, история, военный
Режиссер: Павел Лунгин
В ролях: Кирилл Пирогов, Ян Цапник, Виталий Кищенко, Фёдор Лавров, Олег Васильков, Антон Момот, Михаил Кремер, Кирилл Ермичев, Роман Колотухин, Василий Буткевич

О фильме:
1988 год, канун вывода советских войск из Афганистана. Командование 108-й мотострелковой дивизии планирует отход через перевал Саланг, подконтрольный группировке моджахедов Инженера Хошема. Разведка пытается договориться о перемирии с душманами, но дело осложняется тем, что в плен к Хошему попадает советский военный пилот. Начинается сложная игра, в которой переплетаются противоположные интересы множества самых разных людей: штабистов, исламистов, спецназа, разведки, чиновников из афганского правительства, сотрудников советских спецслужб, таджиков и пуштунов. А в самом центре этого водоворота оказываются солдаты разведроты, для которых важнее любых политических соображений остается правило — не бросать своих.

Страна: Россия
Студия: Мастерская Павла Лунгина
Продолжительность: 01:52:28
Перевод: Не требуется

Файл
Качество: WEB-DL 1080p
Формат: MKV
Кодек: MPEG-4 AVC
Видео: 1920x1080 (16:9), 24 fps, MPEG-4 AVC ~ 5166 Kbps avg, 0.104 bit/pixel
Аудио: AC3, 48 kHz, 6 ch, ~384.00 kbps avg | русский | iTunes


[+] Инфо-файл
Общее
Уникальный идентификатор                 : 93094822148981909514033945541536778920 (0x4609691ABFD6062D03B3080D72EA0AA8)
Полное имя                               : BRATSTVO (2019) WEB-DL 1080p.mkv
Формат                                   : Matroska
Версия формата                           : Version 4 / Version 2
Размер файла                             : 4,45 Гбайт
Продолжительность                        : 1 ч. 52 м.
Общий поток                              : 5663 Кбит/сек
Название фильма                          : Братство (2019)
Дата кодирования                         : UTC 2019-06-23 20:44:28
Программа кодирования                    : mkvmerge v27.0.0 ('Metropolis') 64-bit
Библиотека кодирования                   : libebml v1.3.6 + libmatroska v1.4.9

Видео
Идентификатор                            : 1
Формат                                   : AVC
Формат/Информация                        : Advanced Video Codec
Профиль формата                          : High@L4
Настройки формата                        : CABAC / 4 Ref Frames
Параметр CABAC формата                   : Да
Параметр RefFrames формата               : 4 кадра
Идентификатор кодека                     : V_MPEG4/ISO/AVC
Продолжительность                        : 1 ч. 52 м.
Битрейт                                  : 5277 Кбит/сек
Ширина                                   : 1920 пикселей
Высота                                   : 1080 пикселей
Соотношение сторон                       : 16:9
Режим частоты кадров                     : Постоянный
Частота кадров                           : 24,000 кадра/сек
Цветовое пространство                    : YUV
Субдискретизация насыщенности            : 4:2:0
Битовая глубина                          : 8 бит
Тип развёртки                            : Прогрессивная
Бит/(Пиксели*Кадры)                      : 0.106
Размер потока                            : 4,15 Гбайт (93%)
Заголовок                                : BRATSTVO (2019) WEB-DL 1080p
Язык                                     : Russian
Default                                  : Да
Forced                                   : Нет
Цветовой диапазон                        : Limited
Основные цвета                           : BT.709
Характеристики трансфера                 : BT.709
Коэффициенты матрицы                     : BT.709

Аудио
Идентификатор                            : 2
Формат                                   : AC-3
Формат/Информация                        : Audio Coding 3
Идентификатор кодека                     : A_AC3
Продолжительность                        : 1 ч. 52 м.
Вид битрейта                             : Постоянный
Битрейт                                  : 384 Кбит/сек
Каналы                                   : 6 каналов
Расположение каналов                     : Front: L C R, Side: L R, LFE
Частота                                  : 48,0 КГц
Частота кадров                           : 31,250 кадров/сек (1536 SPF)
Битовая глубина                          : 16 бит
Метод сжатия                             : С потерями
Размер потока                            : 309 Мбайт (7%)
Заголовок                                : iTunes
Язык                                     : Russian
Default                                  : Да
Forced                                   : Нет



Скриншоты:
[+] Всего файлов в раздаче - 1:
BRATSTVO (2019) WEB-DL 1080p.FIX.mkv4.45 GB

Показать еще раздачи по запросу братство:
2019-06-29 U Братство (2019) WEB-DLRip-AVC | iTunes 1.08 GB ↑ 129 ↓ 24
2019-06-27 U Братство (2019) WEB-DLRip от Scarabey | iTunes 745.69 MB ↑ 113 ↓ 18
2019-06-27 U Братство (2019) WEB-DLRip от Scarabey | iTunes 1.45 GB ↑ 185 ↓ 55
2019-06-25 U Братство (2019) WEB-DLRip-AVC | iTunes 744.68 MB ↑ 47 ↓ 14
2019-06-25 U Братство (2019) WEB-DLRip-AVC от New-Team 1.45 GB ↑ 54 ↓ 14
2019-06-25 U Братство (2019) WEB-DLRip от Generalfilm | КПК | iTunes 426.38 MB ↑ 39 ↓ 9
2019-06-25 U Братство (2019) WEB-DLRip-AVC от New-Team 744.80 MB ↑ 52 ↓ 16

Отзывы
Зарегистрируйтесь чтобы добавить комментарий.
Обратная связь
Copyleft ©