↑↓Torrent.by
Поиск
Логин: Регистрация
Пароль: Восстановить пароль
Загрузка...

Пиковая дама: Зазеркалье (2019) WEB-DL 1080p | iTunes

Скачать pikovaya-dama-zazerkale-2019-web-dl-1080p-itunes.torrent
U Магнитная ссылка Размер: 2.88 GB Раздают: 121 Качают: 89 Добавлен: 2019-06-24 07:13:58
Пиковая дама: Зазеркалье (2019) WEB-DL 1080p | iTunes

Название: Пиковая дама: Зазеркалье
Год выпуска: 2019
Жанр:  Ужасы
Режиссер: Александр Домогаров мл.
В ролях: Ангелина Стречина, Даниил Муравьёв-Изотов, Владислав Коноплёв, Клаудиа Бочар, Игорь Яшанин, Валерий Панков, Владимир Канухин, Алена Швиденкова, Ян Алабушев, Анастасия Талызина

О фильме: Зловещий призрак Пиковой Дамы снова жаждет крови, и на этот раз его жертвами становятся воспитанники школы-интерната, расположенного в старинном особняке, окутанном мрачными слухами. Развлекая друг друга страшилками об убийствах детей, которые совершались в этом доме в позапрошлом столетии, подростки находят в заброшенном крыле здания таинственное зеркало, покрытое загадочными рисунками. Ради шутки, ученики проводят перед этим зеркалом мистический обряд вызова духа Пиковой Дамы и загадывают самые сокровенные желания, надеясь, что призрак их исполнит. Шутники не подозревают о том, что платой за выполнение каждой прихоти станут их собственные души - и что Пиковая Дама не успокоится, пока не получит их все.

Выпущено: Россия, RB Productions
Продолжительность: 01:23:19
Язык: Русский | iTunes

Файл
Качество: WEB-DL 1080p
Контейнер: MKV
Видео: MPEG-4 AVC, 1908x792, 4473 kbps, 23.976 fps
Аудио: Russian: AC3, 48.0 KHz, 6 ch, 384 kbps - iTunes
Субтитры: Нет


[+] MediaInfo
Общее
Уникальный идентификатор                 : 221052015766568708748524153053889636510 (0xA64D11D422FFD600AABFBBA2DBB7289E)
Полное имя                               : Pikovaya.dama.Zazerkalie.2019.WEB-DL.1080p.mkv
Формат                                   : Matroska
Версия формата                           : Version 2
Размер файла                             : 2,88 Гбайт
Продолжительность                        : 1 ч. 23 м.
Общий поток                              : 4956 Кбит/сек
Дата кодирования                         : UTC 2019-06-23 23:58:06
Программа кодирования                    : mkvmerge v5.8.0 ('No Sleep / Pillow') built on Sep  2 2012 15:37:04
Библиотека кодирования                   : libebml v1.2.3 + libmatroska v1.3.0

Видео
Идентификатор                            : 1
Формат                                   : AVC
Формат/Информация                        : Advanced Video Codec
Профиль формата                          : High@L4
Параметр CABAC формата                   : Да
Параметр RefFrames формата               : 5 кадров
Идентификатор кодека                     : V_MPEG4/ISO/AVC
Продолжительность                        : 1 ч. 23 м.
Битрейт                                  : 4473 Кбит/сек
Ширина                                   : 1908 пикселей
Высота                                   : 792 пикселя
Соотношение сторон                       : 2,40:1
Режим частоты кадров                     : Постоянный
Частота кадров                           : 23,976 (24000/1001) кадра/сек
Цветовое пространство                    : YUV
Субдискретизация насыщенности            : 4:2:0
Битовая глубина                          : 8 бит
Тип развёртки                            : Прогрессивная
Бит/(Пиксели*Кадры)                      : 0.123
Размер потока                            : 2,60 Гбайт (90%)
Заголовок                                : Pikovaya.dama.Zazerkalie.2019.WEB-DL.1080p
Язык                                     : English
Default                                  : Да
Forced                                   : Нет
Цветовой диапазон                        : Limited
Основные цвета                           : BT.709
Характеристики трансфера                 : BT.709
Коэффициенты матрицы                     : BT.709

Аудио
Идентификатор                            : 2
Формат                                   : AC-3
Формат/Информация                        : Audio Coding 3
Параметр Endianness формата              : Big
Идентификатор кодека                     : A_AC3
Продолжительность                        : 1 ч. 23 м.
Вид битрейта                             : Постоянный
Битрейт                                  : 384 Кбит/сек
Каналы                                   : 6 каналов
Расположение каналов                     : Front: L C R, Side: L R, LFE
Частота                                  : 48,0 КГц
Частота кадров                           : 31,250 кадров/сек (1536 SPF)
Битовая глубина                          : 16 бит
Метод сжатия                             : С потерями
Размер потока                            : 229 Мбайт (8%)
Заголовок                                : iTunes
Язык                                     : Russian
Default                                  : Да
Forced                                   : Нет

Меню
00:00:00.000                             : en:1
00:01:47.000                             : en:2
00:09:52.000                             : en:3
00:19:51.000                             : en:4
00:29:59.000                             : en:5
00:40:25.000                             : en:6
00:49:52.000                             : en:7
00:58:41.000                             : en:8
01:09:01.000                             : en:9
01:19:19.000                             : en:10



Скриншоты:
[+] Всего файлов в раздаче - 1:
Pikovaya.dama.Zazerkalie.2018.WEB-DL.1080p.mkv2.88 GB

Показать еще раздачи по запросу пиковая:
2019-06-26 U Пиковая дама: Зазеркалье (2019) WEB-DLRip от Files-x | iTunes 1.36 GB ↑ 115 ↓ 20
2019-06-25 U Пиковая дама: Зазеркалье (2019) WEB-DLRip-AVC | iTunes 744.43 MB ↑ 49 ↓ 12
2019-06-25 U Пиковая дама: Зазеркалье (2019) WEB-DLRip от GeneralFilm | iTunes 745.56 MB ↑ 65 ↓ 15
2019-06-25 U Пиковая дама: Зазеркалье (2019) WEB-DLRip-AVC от Files-x | iTunes 2К1.37 GB ↑ 73 ↓ 15
2019-06-24 U Пиковая дама: Зазеркалье (2019) WEB-DLRip-AVC от GeneralFilm | iTunes 1.16 GB ↑ 93 ↓ 41
2019-06-24 U Пиковая дама: Зазеркалье (2019) WEB-DLRip | iTunes 1.46 GB ↑ 144 ↓ 85
2017-02-04 U Пиковая дама: Черный обряд (2015) BDRip от MegaPeer | Лицензия 1.46 GB ↑ 232 ↓ 32

Отзывы
Зарегистрируйтесь чтобы добавить комментарий.
Обратная связь
Copyleft ©