↑↓Torrent.by
Поиск
Логин: Регистрация
Пароль: Восстановить пароль
Загрузка...

Капитан семи морей / Capt'n Sharky (2018) WEB-DL 1080p | iTunes

Скачать kapitan-semi-morey-capt-n-sharky-2018-web-dl-1080p-itunes.torrent
U Магнитная ссылка Размер: 2.98 GB Раздают: 44 Качают: 18 Добавлен: 2019-06-24 12:15:44
Капитан семи морей / Capt'n Sharky (2018) WEB-DL 1080p | iTunes

Название: Капитан семи морей  
Оригинальное название: Capt'n Sharky
Год выхода: 2018
Жанр: Мультфильм, мюзикл, боевик, комедия, приключения, семейный
Режиссер: Ян Штольц, Хьюберт Вейланд
Роли озвучивают: Норман Эндрес, Жюль Херман, Антон Петцольд, Аксель Праль, Ребекка Уолш

О фильме:
Капитан Шарки может и маленького роста, но он твердо верит, что он самый грозный пират семи морей. Он и его корабль готовы отправиться в свое первое плавание и всё, что нужно Шарки — компас и настоящая команда. На борту судна случайно оказываются сразу два пассажира: примерный и воспитанный мальчик Мики и бойкая девочка Бонни — дочь Адмирала. Вместе эту разношерстную компанию ждут захватывающие приключения!

Страна: Германия
Студия: Caligari Film GmbH, Caligari Film- und Fernsehproduktions GmbH, Universum Film (UFA)
Продолжительность: 01:16:56
Перевод:
• Профессиональный (полное дублирование) | iTunes

Файл
Качество: WEB-DL 1080p
Формат: MKV
Кодек: MPEG-4 AVC
Видео: 1920x1040 (1,85:1), 24 fps, MPEG-4 AVC ~ 5051 Kbps avg, 0.105 bit/pixel
Аудио: AC3, 48 kHz, 6 ch, ~384.00 kbps avg | русский | iTunes


[+] Инфо-файл
Общее
Уникальный идентификатор                 : 326079582462061130782116854607654911958 (0xF550A4A9859339EBC4D24977715B7FD6)
CAPT'N_SHARKY (2018) WEB-DL 1080p.mkv
Формат                                   : Matroska
Версия формата                           : Version 4 / Version 2
Размер файла                             : 2,98 Гбайт
Продолжительность                        : 1 ч. 16 м.
Общий поток                              : 5543 Кбит/сек
Название фильма                          : Капитан семи морей / Capt'n Sharky (2018)
Дата кодирования                         : UTC 2019-06-23 19:11:55
Программа кодирования                    : mkvmerge v27.0.0 ('Metropolis') 64-bit
Библиотека кодирования                   : libebml v1.3.6 + libmatroska v1.4.9

Видео
Идентификатор                            : 1
Формат                                   : AVC
Формат/Информация                        : Advanced Video Codec
Профиль формата                          : High@L4
Настройки формата                        : CABAC / 4 Ref Frames
Параметр CABAC формата                   : Да
Параметр RefFrames формата               : 4 кадра
Идентификатор кодека                     : V_MPEG4/ISO/AVC
Продолжительность                        : 1 ч. 16 м.
Битрейт                                  : 5158 Кбит/сек
Ширина                                   : 1920 пикселей
Высота                                   : 1040 пикселей
Соотношение сторон                       : 1,85:1
Режим частоты кадров                     : Постоянный
Частота кадров                           : 24,000 кадра/сек
Цветовое пространство                    : YUV
Субдискретизация насыщенности            : 4:2:0
Битовая глубина                          : 8 бит
Тип развёртки                            : Прогрессивная
Бит/(Пиксели*Кадры)                      : 0.108
Размер потока                            : 2,77 Гбайт (93%)
Заголовок                                : CAPT'N_SHARKY (2018) WEB-DL 1080p
Язык                                     : English
Default                                  : Да
Forced                                   : Нет
Цветовой диапазон                        : Limited
Основные цвета                           : BT.709
Характеристики трансфера                 : BT.709
Коэффициенты матрицы                     : BT.709

Аудио
Идентификатор                            : 2
Формат                                   : AC-3
Формат/Информация                        : Audio Coding 3
Идентификатор кодека                     : A_AC3
Продолжительность                        : 1 ч. 16 м.
Вид битрейта                             : Постоянный
Битрейт                                  : 384 Кбит/сек
Каналы                                   : 6 каналов
Расположение каналов                     : Front: L C R, Side: L R, LFE
Частота                                  : 48,0 КГц
Частота кадров                           : 31,250 кадров/сек (1536 SPF)
Битовая глубина                          : 16 бит
Метод сжатия                             : С потерями
Размер потока                            : 211 Мбайт (7%)
Заголовок                                : iTunes
Язык                                     : Russian
Default                                  : Да
Forced                                   : Нет

Меню
00:00:00.000                             : en:Глава 1
00:05:54.791                             : en:Глава 2
00:11:38.082                             : en:Глава 3
00:20:26.415                             : en:Глава 4
00:27:10.498                             : en:Глава 5
00:32:46.498                             : en:Глава 6
00:38:51.623                             : en:Глава 7
00:46:01.914                             : en:Глава 8
00:54:31.455                             : en:Глава 9
01:01:10.330                             : en:Глава 10
01:08:27.371                             : en:Глава 11



Скриншоты:
[+] Всего файлов в раздаче - 1:

Показать еще раздачи по запросу капитан:
2019-07-07 U Капитан Марвел / Captain Marvel (2019) BDRip 720p от Scarabey | Лицензия 5.31 GB ↑ 265 ↓ 6
2019-07-06 U Капитан Марвел / Captain Marvel (2019) HDRip от Scarabey | Лицензия 1.45 GB ↑ 516 ↓ 10
2019-07-05 U Капитан Марвел / Captain Marvel (2019) BDRip-HEVC 1080p | Лицензия 4.45 GB ↑ 47 ↓ 14
2019-07-05 U Капитан Марвел / Captain Marvel (2019) BDRip-HEVC 1080p от HANNIBAL | Лицензия 6.52 GB ↑ 60 ↓ 14
2019-07-05 U Капитан Марвел / Captain Marvel (2019) BDRip-HEVC 720p | Лицензия 2.31 GB ↑ 31 ↓ 9
2019-07-05 U Капитан Марвел / Captain Marvel (2019) HDRip от Scarabey | Лицензия 749.76 MB ↑ 28 ↓ 7
2019-07-04 U Капитан Марвел / Captain Marvel (2019) HDRip от Scarabey | Лицензия 2.17 GB ↑ 115 ↓ 6

Отзывы
Зарегистрируйтесь чтобы добавить комментарий.
Обратная связь
Copyleft ©