↑↓Torrent.by
Поиск
Логин: Регистрация
Пароль: Восстановить пароль
Загрузка...

Пиковая дама: Зазеркалье (2019) WEB-DLRip | iTunes

Скачать pikovaya-dama-zazerkale-2019-web-dlrip-itunes.torrent
U Магнитная ссылка Размер: 1.46 GB Раздают: 142 Качают: 85 Добавлен: 2019-06-24 12:17:08
Пиковая дама: Зазеркалье (2019) WEB-DLRip | iTunes

Пиковая дама: Зазеркалье / Queen of Spades: The Looking Glass

Страна: Россия
Производство: RB Productions
Год выпуска: 2019
Жанр:  ужасы
Продолжительность: 01:23:19

Режиссер: Александр Домогаров мл.
В ролях: Ангелина Стречина, Даниил Муравьев-Изотов, Владислав Коноплёв, Клаудиа Бочар, Игорь Яшанин, Валерий Панков, В. Канухин, А. Швиденкова

Описание: Зловещий призрак Пиковой Дамы снова жаждет крови, и на этот раз его жертвами становятся воспитанники школы-интерната, расположенного в старинном особняке, окутанном мрачными слухами. Развлекая друг друга страшилками об убийствах детей, которые совершались в этом доме в позапрошлом столетии, подростки находят в заброшенном крыле здания таинственное зеркало, покрытое загадочными рисунками. Ради шутки, ученики проводят перед этим зеркалом мистический обряд вызова духа Пиковой Дамы и загадывают самые сокровенные желания, надеясь, что призрак их исполнит. Шутники не подозревают о том, что платой за выполнение каждой прихоти станут их собственные души — и что Пиковая Дама не успокоится, пока не получит их все...

Перевод: не требуется (оригинал) | iTunes
Субтитры: нет

Качество: WEB-DLRip
Формат: AVI
Видео кодек: XviD
Аудио кодек: АС3
Видео: 704x288 (2.40:1), 23.976 fps, XviD build 73 ~2 110 kbps avg
Аудио: 48.0 kHz, AC3 Dolby Digital, 3/2 (L,C,R,l,r) + LFE ch, ~384 kbps

Дата премьеры (РФ): 14 марта 2019, «WDSSPR»

Релиз от: порошков


[+] Media Info
General
Формат                                   : AVI
Формат/Информация                        : Audio Video Interleave
Размер файла                             : 1,46 Гбайт
Продолжительность                        : 1 ч. 23 м.
Общий поток                              : 2504 Кбит/сек
Название фильма                          : Пиковая дама_Зазеркалье_2019_WEB-DLRip
Программа кодирования                    : VirtualDubMod 1.5.10.3 | (build 2550/release)
Авторское право                          : порошков

Видео
Идентификатор                            : 0
Формат                                   : MPEG-4 Visual
Профиль формата                          : Advanced Simple@L5
Настройки формата                        : BVOP1 / Custom Matrix
Параметр BVOP формата                    : 1
Параметр QPel формата                    : Нет
Параметр GMC формата                     : Без точки перехода
Параметр матрицы формата                 : Выборочная
Идентификатор кодека                     : XVID
Идентификатор кодека/Подсказка           : XviD
Продолжительность                        : 1 ч. 23 м.
Битрейт                                  : 2110 Кбит/сек
Ширина                                   : 704 пикселя
Высота                                   : 288 пикселей
Соотношение сторон                       : 2,40:1
Частота кадров                           : 23,976 (24000/1001) кадра/сек
Цветовое пространство                    : YUV
Субдискретизация насыщенности            : 4:2:0
Битовая глубина                          : 8 бит
Тип развёртки                            : Прогрессивная
Метод сжатия                             : С потерями
Бит/(Пиксели*Кадры)                      : 0.434
Размер потока                            : 1,23 Гбайт (84%)
Библиотека кодирования                   : XviD 73

Аудио
Идентификатор                            : 1
Формат                                   : AC-3
Формат/Информация                        : Audio Coding 3
Коммерческое название                    : Dolby Digital
Идентификатор кодека                     : 2000
Продолжительность                        : 1 ч. 23 м.
Вид битрейта                             : Постоянный
Битрейт                                  : 384 Кбит/сек
Каналы                                   : 6 каналов
ChannelLayout                            : L R C LFE Ls Rs
Частота                                  : 48,0 КГц
Частота кадров                           : 31,250 кадров/сек (1536 SPF)
Битовая глубина                          : 16 бит
Метод сжатия                             : С потерями
Размер потока                            : 229 Мбайт (15%)
Выравнивание                             : Разделение по промежуткам
Продолжительность промежутка             : 42  мс. (1,00 видеокадр)
Время предзагрузки промежутка            : 500  мс.



Скриншоты:
[+] Всего файлов в раздаче - 1:
Пиковая дама_Зазеркалье_2019_WEB-DLRip.avi1.46 GB

Показать еще раздачи по запросу пиковая:
2019-06-26 U Пиковая дама: Зазеркалье (2019) WEB-DLRip от Files-x | iTunes 1.36 GB ↑ 114 ↓ 20
2019-06-25 U Пиковая дама: Зазеркалье (2019) WEB-DLRip-AVC | iTunes 744.43 MB ↑ 47 ↓ 12
2019-06-25 U Пиковая дама: Зазеркалье (2019) WEB-DLRip от GeneralFilm | iTunes 745.56 MB ↑ 63 ↓ 15
2019-06-25 U Пиковая дама: Зазеркалье (2019) WEB-DLRip-AVC от Files-x | iTunes 2К1.37 GB ↑ 73 ↓ 15
2019-06-24 U Пиковая дама: Зазеркалье (2019) WEB-DLRip-AVC от GeneralFilm | iTunes 1.16 GB ↑ 90 ↓ 41
2019-06-24 U Пиковая дама: Зазеркалье (2019) WEB-DL 1080p | iTunes 2.88 GB ↑ 120 ↓ 89
2017-02-04 U Пиковая дама: Черный обряд (2015) BDRip от MegaPeer | Лицензия 1.46 GB ↑ 232 ↓ 32

Отзывы
Зарегистрируйтесь чтобы добавить комментарий.
Обратная связь
Copyleft ©