↑↓Torrent.by
Поиск
Логин: Регистрация
Пароль: Восстановить пароль
Загрузка...

Братство (2019) WEB-DLRip от GeneralFilm | iTunes

Скачать bratstvo-2019-web-dlrip-ot-generalfilm-itunes.torrent
U Магнитная ссылка Размер: 746.46 MB Раздают: 302 Качают: 67 Добавлен: 2019-06-24 12:17:08
Братство (2019) WEB-DLRip от GeneralFilm | iTunes

Оригинальное название: Братство
Год выпуска: 2019
Жанр:  Драма, боевик, история, военный
Выпущено: Россия, Мастерская Павла Лунгина
Режиссер: Павел Лунгин
В ролях: Кирилл Пирогов, Ян Цапник, Виталий Кищенко, Фёдор Лавров, Олег Васильков, Антон Момот, Михаил Кремер, Кирилл Ермичев, Роман Колотухин, Василий Буткевич

О фильме: 1988 год, канун вывода советских войск из Афганистана. Командование 108-й мотострелковой дивизии планирует отход через перевал Саланг, подконтрольный группировке моджахедов Инженера Хошема. Разведка пытается договориться о перемирии с душманами, но дело осложняется тем, что в плен к Хошему попадает советский военный пилот. Начинается сложная игра, в которой переплетаются противоположные интересы множества самых разных людей: штабистов, исламистов, спецназа, разведки, чиновников из афганского правительства, сотрудников советских спецслужб, таджиков и пуштунов. А в самом центре этого водоворота оказываются солдаты разведроты, для которых важнее любых политических соображений остается правило — не бросать своих.

Качество: WEB-DLRip
Видео: XviD build 73, 624x352 (16:9), 24.000 fps, 791 Kbps (0.150 bit/pixel)
Аудио: 48.0 kHz, MP3, 2 ch, 128 kbps
Продолжительность: 01:52:28
Перевод: Не требуется [Русский]
Cубтитры: Русские [на иностранную речь]

Релиз:


[+] MediaInfo
General
Complete name               : D:RazdachiBratstvo.2019.WEB-DLRip.745mb.GeneralFilm.avi
Format                      : AVI
Format/Info                 : Audio Video Interleave
File size                   : 746 MiB
Duration                    : 1 h 52 min
Overall bit rate            : 928 kb/s
Writing application         : VirtualDubMod 1.5.10.3 | www.virtualdub-fr.org || (build 2550/release)
Writing library             : VirtualDubMod build 2550/release

Video
ID                          : 0
Format                      : MPEG-4 Visual
Format profile              : Advanced Simple@L5
Format settings             : BVOP1 / Custom Matrix
Format settings, BVOP       : 1
Format settings, QPel       : No
Format settings, GMC        : No warppoints
Format settings, Matrix     : Custom
Codec ID                    : XVID
Codec ID/Hint               : XviD
Duration                    : 1 h 52 min
Bit rate                    : 791 kb/s
Width                       : 624 pixels
Height                      : 352 pixels
Display aspect ratio        : 16:9
Frame rate                  : 24.000 FPS
Color space                 : YUV
Chroma subsampling          : 4:2:0
Bit depth                   : 8 bits
Scan type                   : Progressive
Compression mode            : Lossy
Bits/(Pixel*Frame)          : 0.150
Stream size                 : 636 MiB (85%)
Writing library             : XviD 73

Audio
ID                          : 1
Format                      : MPEG Audio
Format version              : Version 1
Format profile              : Layer 3
Codec ID                    : 55
Codec ID/Hint               : MP3
Duration                    : 1 h 52 min
Bit rate mode               : Constant
Bit rate                    : 128 kb/s
Channel(s)                  : 2 channels
Sampling rate               : 48.0 kHz
Frame rate                  : 41.667 FPS (1152 SPF)
Compression mode            : Lossy
Stream size                 : 103 MiB (14%)
Alignment                   : Aligned on interleaves
Interleave, duration        : 42  ms (1.00 video frame)
Interleave, preload duratio : 504  ms
Writing library             : LAME3.99r
Encoding settings           : -m s -V 4 -q 2 -lowpass 17 -b 128



Скриншоты:
[+] Всего файлов в раздаче - 1:
Bratstvo.2019.WEB-DLRip.745mb.GeneralFilm.avi746.46 MB

Показать еще раздачи по запросу братство:
2019-06-29 U Братство (2019) WEB-DLRip-AVC | iTunes 1.08 GB ↑ 218 ↓ 25
2019-06-27 U Братство (2019) WEB-DLRip от Scarabey | iTunes 1.45 GB ↑ 262 ↓ 57
2019-06-25 U Братство (2019) WEB-DLRip-AVC от Files-x | iTunes 1.46 GB ↑ 130 ↓ 20
2019-06-25 U Братство (2019) WEB-DLRip от Files-x | iTunes 1.37 GB ↑ 140 ↓ 17
2019-06-24 U Братство (2019) WEB-DLRip-AVC от OlLanDGroup | iTunes 1.46 GB ↑ 102 ↓ 49
2019-06-24 U Братство (2019) WEB-DL 1080p | iTunes 4.45 GB ↑ 516 ↓ 268
2018-03-11 U Эдуард Тополь - Братство Маргариты [чит. Олег Кейнз] (2018) MP3 144.90 MB ↑ 721 ↓ 56

Отзывы
Зарегистрируйтесь чтобы добавить комментарий.
Обратная связь
Copyleft ©