↑↓Torrent.by
Поиск
Логин: Регистрация
Пароль: Восстановить пароль
Загрузка...

Братство (2019) WEB-DLRip-AVC от OlLanDGroup | iTunes

Скачать bratstvo-2019-web-dlrip-avc-ot-ollandgroup-itunes.torrent
U Магнитная ссылка Размер: 1.46 GB Раздают: 85 Качают: 47 Добавлен: 2019-06-24 12:17:24
Братство (2019) WEB-DLRip-AVC от OlLanDGroup | iTunes

Братство

Год выпуска: 2019
Страна: Россия
Производство: Мастерская Павла Лунгина
Жанр:  Драма, боевик, история, военный

Режиссёр: Павел Лунгин
В ролях: Кирилл Пирогов, Ян Цапник, Виталий Кищенко, Фёдор Лавров, Олег Васильков, Антон Момот, Александр Кузнецов (IX), Роман Колотухин, Михаил Кремер, Кирилл Ермичёв, Василий Буткевич, Арслан Мурзабеков, Антон Кузнецов, Диловер Нигматов, Евгений Зеленский, Евгений Сангаджиев, Карим Темирханов, Парвиз Пулоди, Сухроб Чанчолов, Умеджон Баханбаев, Вячеслав Шихалеев

Перевод: Оригинал | [iTunes]
Субтитры: Русские на иностранную речь (вшиты)
Реклама: Отсутствует

Описание: 1988 год, канун вывода советских войск из Афганистана. Командование 108-й мотострелковой дивизии планирует отход через перевал Саланг, подконтрольный группировке моджахедов Инженера Хошема. Разведка пытается договориться о перемирии с душманами, но дело осложняется тем, что в плен к Хошему попадает советский военный пилот. Начинается сложная игра, в которой переплетаются противоположные интересы множества самых разных людей: штабистов, исламистов, спецназа, разведки, чиновников из афганского правительства, сотрудников советских спецслужб, таджиков и пуштунов. А в самом центре этого водоворота оказываются солдаты разведроты, для которых важнее любых политических соображений остается правило - не бросать своих.

Качество: WEB-DLRip-AVC | iTunes Version |
Продолжительность: 01:52:28

Формат: MKV
Видео кодек: MPEG-4 AVC
Аудио кодек: AC3
Видео: 960x540 (2.40:1), 24,000 fps, x264 ~1 473 kbps avg, 0.118 bit/pixel
Аудио #1: 48 kHz, AC3 Dolby Digital, 3/2 (L,C,R,l,r) + LFE ch, ~384.00 kbps avg | RUS (iTunes)

*** Звук с iTunes пофиксен!

Дата премьеры (мир): 15 июня 2019
Дата премьеры (РФ): 10 мая 2019, «WDSSPR»
Цифровой релиз:

Релиз:


[+] MediaInfo

Общее
Уникальный идентификатор                 : 282473477214146695569101835130421315109 (0xD48269AEFA2D91AAFB1071046A0F0625)
Полное имя                               : F:OlLanDGroupBratstvo.2019.WEB-DLRip(AVC).OlLanDGroup.mkv
Формат                                   : Matroska
Версия формата                           : Version 4 / Version 2
Размер файла                             : 1,46 Гбайт
Продолжительность                        : 1 ч. 52 м.
Общий поток                              : 1855 Кбит/сек
Название фильма                          : BRATSTVO.2019   #TorpedoUK#
Дата кодирования                         : UTC 2019-06-24 05:59:21
Программа кодирования                    : mkvmerge v29.0.0 ('Like It Or Not') 64-bit
Библиотека кодирования                   : libebml v1.3.6 + libmatroska v1.4.9

Видео
Идентификатор                            : 1
Формат                                   : AVC
Формат/Информация                        : Advanced Video Codec
Профиль формата                          : High@L4.1
Параметр CABAC формата                   : Да
Параметр ReFrames формата                : 10 кадров
Идентификатор кодека                     : V_MPEG4/ISO/AVC
Продолжительность                        : 1 ч. 52 м.
Битрейт                                  : 1473 Кбит/сек
Ширина                                   : 960 пикселей
Высота                                   : 540 пикселей
Соотношение сторон                       : 16:9
Режим частоты кадров                     : Постоянный
Частота кадров                           : 24,000 кадра/сек
Цветовое пространство                    : YUV
Субдискретизация насыщенности            : 4:2:0
Битовая глубина                          : 8 бит
Тип развёртки                            : Прогрессивная
Бит/(Пиксели*Кадры)                      : 0.118
Размер потока                            : 1,15 Гбайт (79%)
Библиотека кодирования                   : x264 core 146 r2538 121396c
Настройки программы                      : cabac=1 / ref=10 / deblock=1:-2:-3 / analyse=0x3:0x113 / me=umh / subme=10 / psy=1 / psy_rd=0.95:0.07 / mixed_ref=1 / me_range=48 / chroma_me=1 / trellis=2 / 8x8dct=1 / cqm=0 / deadzone=21,11 / fast_pskip=1 / chroma_qp_offset=-3 / threads=6 / lookahead_threads=1 / sliced_threads=0 / nr=0 / decimate=1 / interlaced=0 / bluray_compat=0 / constrained_intra=0 / bframes=11 / b_pyramid=2 / b_adapt=2 / b_bias=0 / direct=3 / weightb=1 / open_gop=0 / weightp=2 / keyint=240 / keyint_min=24 / scenecut=40 / intra_refresh=0 / rc_lookahead=40 / rc=2pass / mbtree=0 / bitrate=1473 / ratetol=1.0 / qcomp=0.60 / qpmin=0 / qpmax=69 / qpstep=4 / cplxblur=20.0 / qblur=0.5 / vbv_maxrate=50000 / vbv_bufsize=62500 / nal_hrd=none / filler=0 / ip_ratio=1.40 / pb_ratio=1.30 / aq=1:1.00
Default                                  : Да
Forced                                   : Нет

Аудио
Идентификатор                            : 2
Формат                                   : AC-3
Формат/Информация                        : Audio Coding 3
Расширение режима                        : CM (complete main)
Параметр Endianness формата              : Big
Идентификатор кодека                     : A_AC3
Продолжительность                        : 1 ч. 52 м.
Вид битрейта                             : Постоянный
Битрейт                                  : 384 Кбит/сек
Каналы                                   : 6 каналов
Расположение каналов                     : Front: L C R, Side: L R, LFE
Частота                                  : 48,0 КГц
Частота кадров                           : 31,250 кадров/сек (1536 spf)
Битовая глубина                          : 16 бит
Метод сжатия                             : С потерями
Размер потока                            : 309 Мбайт (21%)
Заголовок                                : [ORIGINAL] DD 5.1 @ 384 kbps (iTunes)
Язык                                     : Russian
Default                                  : Да
Forced                                   : Нет

Меню
00:00:00.000                             : en:Глава 1
00:06:54.458                             : en:Глава 2
00:13:52.041                             : en:Глава 3
00:22:49.457                             : en:Глава 4
00:29:55.165                             : en:Глава 5
00:36:15.915                             : en:Глава 6
00:43:57.498                             : en:Глава 7
00:50:49.664                             : en:Глава 8
00:58:47.705                             : en:Глава 9
01:06:12.080                             : en:Глава 10
01:13:35.080                             : en:Глава 11
01:19:22.996                             : en:Глава 12
01:27:22.704                             : en:Глава 13
01:33:08.495                             : en:Глава 14
01:41:36.453                             : en:Глава 15



Скриншоты:
[+] Всего файлов в раздаче - 1:
Bratstvo.2019.WEB-DLRip(AVC).OlLanDGroup.mkv1.46 GB

Показать еще раздачи по запросу братство:
2019-06-29 U Братство (2019) WEB-DLRip-AVC | iTunes 1.08 GB ↑ 130 ↓ 24
2019-06-27 U Братство (2019) WEB-DLRip от Scarabey | iTunes 745.69 MB ↑ 114 ↓ 18
2019-06-27 U Братство (2019) WEB-DLRip от Scarabey | iTunes 1.45 GB ↑ 190 ↓ 55
2019-06-25 U Братство (2019) WEB-DLRip-AVC | iTunes 744.68 MB ↑ 47 ↓ 14
2019-06-25 U Братство (2019) WEB-DLRip-AVC от New-Team 1.45 GB ↑ 54 ↓ 14
2019-06-25 U Братство (2019) WEB-DLRip от Generalfilm | КПК | iTunes 426.38 MB ↑ 39 ↓ 9
2019-06-25 U Братство (2019) WEB-DLRip-AVC от New-Team 744.80 MB ↑ 52 ↓ 16

Отзывы
Зарегистрируйтесь чтобы добавить комментарий.
Обратная связь
Copyleft ©