↑↓Torrent.by
Поиск
Логин: Регистрация
Пароль: Восстановить пароль
Загрузка...

Пиковая дама: Зазеркалье (2019) WEB-DLRip-AVC от GeneralFilm | iTunes

Скачать pikovaya-dama-zazerkale-2019-web-dlrip-avc-ot-generalfilm-itunes.torrent
U Магнитная ссылка Размер: 1.16 GB Раздают: 90 Качают: 41 Добавлен: 2019-06-24 12:17:34
Пиковая дама: Зазеркалье (2019) WEB-DLRip-AVC от GeneralFilm | iTunes

Год выпуска: 2019
Жанр:  Ужасы
Выпущено: Россия, RB Productions
Режиссер: Александр Домогаров мл.
В ролях: Ангелина Стречина, Даниил Муравьёв-Изотов, Владислав Коноплёв, Клаудиа Бочар, Игорь Яшанин, Валерий Панков, Владимир Канухин, Алена Швиденкова, Ян Алабушев, Анастасия Талызина

О фильме: Зловещий призрак Пиковой Дамы снова жаждет крови, и на этот раз его жертвами становятся воспитанники школы-интерната, расположенного в старинном особняке, окутанном мрачными слухами. Развлекая друг друга страшилками об убийствах детей, которые совершались в этом доме в позапрошлом столетии, подростки находят в заброшенном крыле здания таинственное зеркало, покрытое загадочными рисунками. Ради шутки, ученики проводят перед этим зеркалом мистический обряд вызова духа Пиковой Дамы и загадывают самые сокровенные желания, надеясь, что призрак их исполнит. Шутники не подозревают о том, что платой за выполнение каждой прихоти станут их собственные души - и что Пиковая Дама не успокоится, пока не получит их все.

Качество: WEB-DLRip-AVC
Видео: MPEG-4 AVC,  ~ 1600 Кбит/с, 1024x424, 23.976 кадр/с
Аудио:  AC3, 2 ch, 192 Кбит/с
Продолжительность: 01:23:19
Перевод: Не требуется [iTunes]
Субтитры: нет

Релиз:


[+] MediaInfo

Общее
Уникальный идентификатор                 : 224245343861768453849348240173140238839 (0xA8B4150F34CDF444BF7BC4B1C44F61F7)
Полное имя                               : D:Pikovaja dama. Zazerkale.WEB-DLRip.(AVC).GeneralFilm.mkv
Формат                                   : Matroska
Версия формата                           : Version 2
Размер файла                             : 1,16 Гбайт
Продолжительность                        : 1 ч. 23 м.
Общий поток                              : 1986 Кбит/сек
Дата кодирования                         : UTC 2019-06-24 06:40:21
Программа кодирования                    : mkvmerge v7.8.0 ('River Man') 32bit built on Apr  3 2015 12:11:22
Библиотека кодирования                   : libebml v1.3.1 + libmatroska v1.4.2

Видео
Идентификатор                            : 1
Формат                                   : AVC
Формат/Информация                        : Advanced Video Codec
Профиль формата                          : High@L4.1
Параметр CABAC формата                   : Да
Параметр ReFrames формата                : 9 кадров
Идентификатор кодека                     : V_MPEG4/ISO/AVC
Продолжительность                        : 1 ч. 23 м.
Битрейт                                  : 1600 Кбит/сек
Ширина                                   : 1024 пикселя
Высота                                   : 424 пикселя
Соотношение сторон                       : 2,40:1
Режим частоты кадров                     : Постоянный
Частота кадров                           : 23,976 (24000/1001) кадра/сек
Цветовое пространство                    : YUV
Субдискретизация насыщенности            : 4:2:0
Битовая глубина                          : 8 бит
Тип развёртки                            : Прогрессивная
Бит/(Пиксели*Кадры)                      : 0.154
Размер потока                            : 931 Мбайт (79%)
Библиотека кодирования                   : x264 core 146 r2538 121396c
Настройки программы                      : cabac=1 / ref=9 / deblock=1:-2:-1 / analyse=0x3:0x113 / me=umh / subme=9 / psy=1 / psy_rd=1.00:0.15 / mixed_ref=1 / me_range=32 / chroma_me=1 / trellis=2 / 8x8dct=1 / cqm=0 / deadzone=21,11 / fast_pskip=0 / chroma_qp_offset=-3 / threads=18 / lookahead_threads=3 / sliced_threads=0 / nr=0 / decimate=1 / interlaced=0 / bluray_compat=0 / constrained_intra=0 / bframes=9 / b_pyramid=2 / b_adapt=2 / b_bias=0 / direct=3 / weightb=1 / open_gop=0 / weightp=2 / keyint=250 / keyint_min=23 / scenecut=40 / intra_refresh=0 / rc_lookahead=40 / rc=2pass / mbtree=0 / bitrate=1600 / ratetol=1.0 / qcomp=0.60 / qpmin=0 / qpmax=69 / qpstep=4 / cplxblur=20.0 / qblur=0.5 / vbv_maxrate=14000 / vbv_bufsize=14000 / nal_hrd=none / filler=0 / ip_ratio=1.40 / pb_ratio=1.30 / aq=2:1.00
Default                                  : Да
Forced                                   : Нет
Цветовой диапазон                        : Limited
Основные цвета                           : BT.709
Характеристики трансфера                 : BT.709
Коэффициенты матрицы                     : BT.709

Аудио
Идентификатор                            : 2
Формат                                   : AC-3
Формат/Информация                        : Audio Coding 3
Расширение режима                        : CM (complete main)
Параметр Endianness формата              : Big
Идентификатор кодека                     : A_AC3
Продолжительность                        : 1 ч. 23 м.
Вид битрейта                             : Постоянный
Битрейт                                  : 384 Кбит/сек
Каналы                                   : 6 каналов
Расположение каналов                     : Front: L C R, Side: L R, LFE
Частота                                  : 48,0 КГц
Частота кадров                           : 31,250 кадров/сек (1536 spf)
Битовая глубина                          : 16 бит
Метод сжатия                             : С потерями
Размер потока                            : 229 Мбайт (19%)
Default                                  : Да
Forced                                   : Нет




Скриншоты:
[+] Всего файлов в раздаче - 1:
Pikovaja dama. Zazerkale.WEB-DLRip.(AVC).GeneralFilm.mkv1.16 GB

Показать еще раздачи по запросу пиковая:
2019-06-26 U Пиковая дама: Зазеркалье (2019) WEB-DLRip от Files-x | iTunes 1.36 GB ↑ 114 ↓ 20
2019-06-25 U Пиковая дама: Зазеркалье (2019) WEB-DLRip-AVC | iTunes 744.43 MB ↑ 47 ↓ 12
2019-06-25 U Пиковая дама: Зазеркалье (2019) WEB-DLRip от GeneralFilm | iTunes 745.56 MB ↑ 63 ↓ 15
2019-06-25 U Пиковая дама: Зазеркалье (2019) WEB-DLRip-AVC от Files-x | iTunes 2К1.37 GB ↑ 73 ↓ 15
2019-06-24 U Пиковая дама: Зазеркалье (2019) WEB-DLRip | iTunes 1.46 GB ↑ 142 ↓ 85
2019-06-24 U Пиковая дама: Зазеркалье (2019) WEB-DL 1080p | iTunes 2.88 GB ↑ 120 ↓ 89
2017-02-04 U Пиковая дама: Черный обряд (2015) BDRip от MegaPeer | Лицензия 1.46 GB ↑ 232 ↓ 32

Отзывы
Зарегистрируйтесь чтобы добавить комментарий.
Обратная связь
Copyleft ©