↑↓Torrent.by
Поиск
Логин: Регистрация
Пароль: Восстановить пароль
Загрузка...

Беловодье. Тайна затерянной страны [01-10 из 12] (2016) WEBRip 1080p

Скачать belovode-tayna-zateryannoy-strany-01-10-iz-12-2016-webrip-1080p.torrent
U Магнитная ссылка Размер: 17.72 GB Раздают: 64 Качают: 143 Добавлен: 2019-06-25 07:14:44
Беловодье. Тайна затерянной страны  [01-10 из 12] (2016) WEBRip 1080p

Название: Беловодье. Тайна затерянной страны
Год выхода: 2016
Жанр: Мистика, приключения, фэнтези
Режиссер: Евгений Бедарев
В ролях: Александр Петров (II), Светлана Суханова, Татьяна Орлова, Алексей Васильев (II), Алла Подчуфарова, Юлия Самойленко, Павел Крайнов, Роман Курцын, Марианна Шульц, Залим Мирзоев, Сергей Майоров (III), Любовь Виролайнен, Александр Пальчиков, Екатерина Ефимова, Руслан Спояло, Евгений Морозов, Данила Якушев, Рустам Махмутов, Дарья Макарова, Алёна Ковалёва, Михаил Хмуров, Николай Токарев, Дмитрий Бедарев, Максим Важов, Елена Аросьева

О фильме:
Герои самого зрелищного российского фэнтези-сериала «Пока цветет папоротник» возвращаются на экраны в новой полной приключений и волшебства истории «Беловодье. Тайна затерянной страны». Страшная тайна Хранителей открыта. Провал земли в заброшенном горном монастыре освободил силу, которая угрожает всей жизни на Земле. В параллельных мирах развернулась борьба за власть, каждый ведет свою смертельную игру, и понять, кто враг, а кто друг невозможно. Остается только один шанс на спасение. Но для последней Надежды нужна крепкая Вера и страстная Любовь.

Страна: Россия
Студия: ИВД Кино
Продолжительность: 6 х ~ 00:48:00
Язык: Русский

Файл
Кодек: H264
Качество: WEBRip 1080p
Видео: MPEG4 AVC, 16:9, 1920x1080, 25 fps, ~4900 kbps, 0.095 bit/pixel
Аудио: AAC, 44.1 kHz, 2/0 (L,R) ch, 204 kbps


[+] МедиаИнфо
General
Complete name : G:Belovode.taina.zateryannoi.strany.2016Belovode.taina.zateryannoi.strany.(01.seriya.iz.12).2016.mp4
Format : MPEG-4
Format profile : Base Media
Codec ID : isom (isom/iso2/avc1/mp41)
File size : 1.76 GiB
Duration : 47 min 42 s
Overall bit rate : 5 271 kb/s

Video
ID : 1
Format : AVC / AVC
Format/Info : Advanced Video Codec
Format profile : High@L4 / High@L4
Format settings, CABAC : Yes / Yes
Format settings, ReFrames : 4 frames / 4 frames
Format settings, GOP : N=1 / N=1
Codec ID : avc1
Codec ID/Info : Advanced Video Coding
Duration : 47 min 42 s
Source duration : 2 s 518 ms
Source_Duration_FirstFrame : 628 ms
Bit rate : 4 849 kb/s
Width : 1 920 pixels
Original width : 1 920 pixels / 1 920 pixels
Height : 1 080 pixels
Original height : 1 080 pixels / 1 080 pixels
Display aspect ratio : 16:9
Frame rate mode : Constant
Frame rate : 25.000 FPS
Color space : YUV / YUV
Chroma subsampling : 4:2:0 / 4:2:0
Bit depth : 8 bits / 8 bits
Scan type : Progressive / Progressive
Bits/(Pixel*Frame) : 0.094
Stream size : 1.62 GiB (92%)
Source stream size : 1.69 GiB (96%)
mdhd_Duration : 2862709

Audio
ID : 2
Format : AAC
Format/Info : Advanced Audio Codec
Format profile : LC
Codec ID : 40
Duration : 47 min 42 s
Bit rate mode : Constant
Bit rate : 204 kb/s
Channel(s) : 2 channels
Channel positions : Front: L R
Sampling rate : 44.1 kHz
Frame rate : 43.066 FPS (1024 spf)
Compression mode : Lossy
Stream size : 69.6 MiB (4%)
Default : Yes
Alternate group : 1



Скриншоты:
[+] Всего файлов в раздаче - 10:
Belovode.taina.zateryannoi.strany.(01.seriya.iz.12).2016.mp41.76 GB
Belovode.taina.zateryannoi.strany.(02.seriya.iz.12).2016.mp41.77 GB
Belovode.taina.zateryannoi.strany.(03.seriya.iz.12).2016.mp41.77 GB
Belovode.taina.zateryannoi.strany.(04.seriya.iz.12).2016.mp41.78 GB
Belovode.taina.zateryannoi.strany.(05.seriya.iz.12).2016.mp41.79 GB
Belovode.taina.zateryannoi.strany.(06.seriya.iz.12).2016.mp41.76 GB
Belovode.taina.zateryannoi.strany.(07.seriya.iz.12).2016.mp41.76 GB
Belovode.taina.zateryannoi.strany.(08.seriya.iz.12).2016.mp41.77 GB
Belovode.taina.zateryannoi.strany.(09.seriya.iz.12).2016.mp41.79 GB
Belovode.taina.zateryannoi.strany.(10.seriya.iz.12).2016.mp41.77 GB

Показать еще раздачи по запросу беловодье:
2019-07-02 U Беловодье. Тайна затерянной страны [01-12 из 12] (2016) WEB-DLRip-AVC от GeneralFilm 7.03 GB ↑ 90 ↓ 147
2019-07-02 U Беловодье. Тайна затерянной страны [01-12 из 12] (2016) WEB-DLRip от GeneralFilm 6.53 GB ↑ 65 ↓ 110
2019-07-02 U Беловодье. Тайна затерянной страны [01-12 из 12] (2016) WEB-DLRip 7.03 GB ↑ 166 ↓ 204
2019-06-26 U Беловодье. Тайна затерянной страны [01-10 из 12] (2016) WEB-DLRip от Files-x 6.02 GB ↑ 45 ↓ 65
2019-06-25 U Беловодье. Тайна затерянной страны [01-10 из 12] (2016) WEB-DLRip 5.86 GB ↑ 41 ↓ 49
2019-06-19 U Беловодье. Тайна затерянной страны [01-06 из 12] (2016) WEB-DLRip от Files-x 1К3.61 GB ↑ 30 ↓ 12
2019-06-19 U Беловодье. Тайна затерянной страны [01-06 из 12] (2016) WEB-DLRip 3.51 GB ↑ 36 ↓ 24

Отзывы
Зарегистрируйтесь чтобы добавить комментарий.
Обратная связь
Copyleft ©