↑↓Torrent.by
Поиск
Логин: Регистрация
Пароль: Восстановить пароль
Загрузка...

Братство (2019) WEB-DLRip-AVC от New-Team

Скачать bratstvo-2019-web-dlrip-avc-ot-new-team.torrent
U Магнитная ссылка Размер: 1.45 GB Раздают: 54 Качают: 14 Добавлен: 2019-06-25 07:15:47
Братство (2019) WEB-DLRip-AVC от New-Team

Братство

Страна: Россия
Жанр:  драма, боевик, история, военный
Год выпуска: 2019
Продолжительность: 01:52:28

Перевод: Не требуется
Субтитры: русские (форсированные, хардсаб)
Оригинальная аудиодорожка: русский

Режиссер: Павел Лунгин

В ролях: Кирилл Пирогов, Ян Цапник, Виталий Кищенко, Федор Лавров, Олег Васильков, Антон Момот, Михаил Кремер, Кирилл Ермичев, Роман Колотухин, Василий Буткевич, Арслан Мурзабеков, Антон Кузнецов

Описание: 1988 год, канун вывода советских войск из Афганистана. Командование 108-й мотострелковой дивизии планирует отход через перевал Саланг, подконтрольный группировке моджахедов Инженера Хошема. Разведка пытается договориться о перемирии с душманами, но дело осложняется тем, что в плен к Хошему попадает советский военный пилот. Начинается сложная игра, в которой переплетаются противоположные интересы множества самых разных людей: штабистов, исламистов, спецназа, разведки, чиновников из афганского правительства, сотрудников советских спецслужб, таджиков и пуштунов. А в самом центре этого водоворота оказываются солдаты разведроты, для которых важнее любых политических соображений остается правило - не бросать своих.

Релиз:

Автор рипа: stalkerok

Семпл

Качество видео: WEB-DLRip-AVC | BRATSTVO_2019_WEB_DL_1080p-BLUEBIRD
Формат видео: MKV
Видео кодек: AVC
Аудио кодек: AC3
Видео: AVC, 1464 Кбит/сек, 832x468 (16:9), 24 кадр/сек
Аудио: AC3, 384 Кбит/сек, 48 КГц, 5.1 - русский | iTunes (fix audio)
Навигация по главам: есть


[+] x264/MediaInfo


---[Information] [24.06.2019 11:49:47] x264 [info]: frame I:1035  Avg QP:19.51  size: 48252
---[Information] [24.06.2019 11:49:47] x264 [info]: frame P:43653 Avg QP:23.20  size: 14528
---[Information] [24.06.2019 11:49:47] x264 [info]: frame B:117264 Avg QP:24.05  size:  4694

General
Unique ID                                : 261033847781434053537567196663358197499 (0xC4614A57445867903493057BE7248EFB)
Complete name                            : C:tempBratstvoBratstvo.2019.WEB-DLRip.x264.Rus.stalkerok.New-Team.mkv
Format                                   : Matroska
Format version                           : Version 4
File size                                : 1.45 GiB
Duration                                 : 1 h 52 min
Overall bit rate                         : 1 851 kb/s
Movie name                               : Братство (2019) | Rip by stalkerok
Encoded date                             : UTC 2019-06-24 08:52:36
Writing application                      : mkvmerge v33.1.0 ('Primrose') 64-bit
Writing library                          : libebml v1.3.7 + libmatroska v1.5.0
Cover                                    : Yes
Attachments                              : cover.png

Video
ID                                       : 1
Format                                   : AVC
Format/Info                              : Advanced Video Codec
Format profile                           : High@L4.1
Format settings                          : CABAC / 12 Ref Frames
Format settings, CABAC                   : Yes
Format settings, RefFrames               : 12 frames
Codec ID                                 : V_MPEG4/ISO/AVC
Duration                                 : 1 h 52 min
Bit rate                                 : 1 464 kb/s
Width                                    : 832 pixels
Height                                   : 468 pixels
Display aspect ratio                     : 16:9
Frame rate mode                          : Constant
Frame rate                               : 24.000 FPS
Color space                              : YUV
Chroma subsampling                       : 4:2:0
Bit depth                                : 8 bits
Scan type                                : Progressive
Bits/(Pixel*Frame)                       : 0.157
Stream size                              : 1.15 GiB (79%)
Title                                    : Братство (2019) | Rip by stalkerok
Writing library                          : x264 core 157 r2969 d4099dd
Encoding settings                        : cabac=1 / ref=12 / deblock=1:-3:-2 / analyse=0x3:0x133 / me=umh / subme=11 / psy=1 / psy_rd=1.00:0.00 / mixed_ref=1 / me_range=32 / chroma_me=1 / trellis=2 / 8x8dct=1 / cqm=0 / deadzone=21,11 / fast_pskip=0 / chroma_qp_offset=-2 / threads=12 / lookahead_threads=3 / sliced_threads=0 / nr=0 / decimate=0 / interlaced=0 / bluray_compat=0 / constrained_intra=0 / bframes=14 / b_pyramid=2 / b_adapt=2 / b_bias=0 / direct=3 / weightb=1 / open_gop=0 / weightp=2 / keyint=240 / keyint_min=23 / scenecut=40 / intra_refresh=0 / rc_lookahead=60 / rc=2pass / mbtree=0 / bitrate=1464 / ratetol=1.0 / qcomp=0.65 / qpmin=0 / qpmax=69 / qpstep=4 / cplxblur=20.0 / qblur=0.5 / vbv_maxrate=50000 / vbv_bufsize=62500 / nal_hrd=none / filler=0 / ip_ratio=1.40 / pb_ratio=1.30 / aq=3:0.90 / zones=156553,161951,q=34
Default                                  : Yes
Forced                                   : No

Audio
ID                                       : 2
Format                                   : AC-3
Format/Info                              : Audio Coding 3
Commercial name                          : Dolby Digital
Codec ID                                 : A_AC3
Duration                                 : 1 h 52 min
Bit rate mode                            : Constant
Bit rate                                 : 384 kb/s
Channel(s)                               : 6 channels
Channel layout                           : L R C LFE Ls Rs
Sampling rate                            : 48.0 kHz
Frame rate                               : 31.250 FPS (1536 SPF)
Bit depth                                : 16 bits
Compression mode                         : Lossy
Stream size                              : 309 MiB (21%)
Language                                 : Russian
Service kind                             : Complete Main
Default                                  : Yes
Forced                                   : No

Menu
00:00:00.000                             : en:Глава 1
00:06:54.458                             : en:Глава 2
00:13:52.041                             : en:Глава 3
00:22:49.457                             : en:Глава 4
00:29:55.165                             : en:Глава 5
00:36:15.915                             : en:Глава 6
00:43:57.498                             : en:Глава 7
00:50:49.664                             : en:Глава 8
00:58:47.705                             : en:Глава 9
01:06:12.080                             : en:Глава 10
01:13:35.080                             : en:Глава 11
01:19:22.996                             : en:Глава 12
01:27:22.704                             : en:Глава 13
01:33:08.495                             : en:Глава 14
01:41:36.453                             : en:Глава 15




Скриншоты:
[+] Всего файлов в раздаче - 1:
Bratstvo.2019.WEB-DLRip.x264.Rus.stalkerok.New-Team.mkv1.45 GB

Показать еще раздачи по запросу братство:
2019-06-29 U Братство (2019) WEB-DLRip-AVC | iTunes 1.08 GB ↑ 129 ↓ 24
2019-06-27 U Братство (2019) WEB-DLRip от Scarabey | iTunes 745.69 MB ↑ 113 ↓ 18
2019-06-27 U Братство (2019) WEB-DLRip от Scarabey | iTunes 1.45 GB ↑ 186 ↓ 55
2019-06-25 U Братство (2019) WEB-DLRip-AVC | iTunes 744.68 MB ↑ 47 ↓ 14
2019-06-25 U Братство (2019) WEB-DLRip от Generalfilm | КПК | iTunes 426.38 MB ↑ 39 ↓ 9
2019-06-25 U Братство (2019) WEB-DLRip-AVC от New-Team 744.80 MB ↑ 52 ↓ 16
2019-06-25 U Братство (2019) WEB-DLRip-AVC от Files-x | iTunes 1.46 GB ↑ 84 ↓ 18

Отзывы
Зарегистрируйтесь чтобы добавить комментарий.
Обратная связь
Copyleft ©