↑↓Torrent.by
Поиск
Логин: Регистрация
Пароль: Восстановить пароль
Загрузка...

Пьяная фирма [01-04 из 04] (2016) WEB-DLRip-AVC от GeneralFilm

Скачать pyanaya-firma-01-04-iz-2016-web-dlrip-avc-ot-generalfilm.torrent
U Магнитная ссылка Размер: 2.34 GB Раздают: 105 Качают: 45 Добавлен: 2019-06-25 11:59:57
Пьяная фирма [01-04 из 04] (2016) WEB-DLRip-AVC от GeneralFilm

Год выпуска: 2016
Жанр:  Комедия
Выпущено: Россия, Russian World Studios
Режиссер: Григорий Константинопольский
В ролях: Михаил Ефремов, Елизавета Боярская, Иван Макаревич, Виктория Исакова, Анна Михалкова, Марат Башаров, Юрий Колокольников, Ирина Апексимова, Алексей Кортнев, Александр Петров (II), Ингеборга Дапкунайте, Александр Стриженов, Андрей Мерзликин, Сергей Колтаков, Артём Ткаченко, Ян Цапник, Олег Фёдоров (IV), Сергей Лобынцев, Диана Пентович

О фильме: Бывший врач-реаниматолог не от хорошей жизни трудится охранником. Однажды он узнает, что его дочери, с которой он не общался много лет, срочно требуются деньги. Чтобы собрать нужную сумму в короткий срок, герой сериала «Пьяная фирма» начинает работать «капельником». Его задача — выводить из запоя очень богатых людей.

Кодек: h.264
Качество: WEB-DLRip-AVC
Видео: MPEG-4 AVC, ~ 1500 Кбит/с, 720х304, 25 кадр/с
Аудио: Русский (AC3, 2 ch, 192 Кбит/с)
Продолжительность: 4 х ~ 00:50:00
Перевод: Не требуется
Субтитры: нет

Релиз:


[+] MediaInfo

Общее
Уникальный идентификатор                 : 185767989070484700636845136396359977842 (0x8BC19D004EC3AF53AE26EFDED1BA4B72)
Полное имя                               : D:Pjanaja firma.WEB-DLRip.(AVC).GeneralFilm1.Pjanaja firma.WEB-DLRip.(AVC).GeneralFilm.mkv
Формат                                   : Matroska
Версия формата                           : Version 2
Размер файла                             : 598 Мбайт
Продолжительность                        : 50 м. 0 с.
Общий поток                              : 1673 Кбит/сек
Дата кодирования                         : UTC 2019-06-24 23:09:06
Программа кодирования                    : mkvmerge v7.8.0 ('River Man') 32bit built on Apr  3 2015 12:11:22
Библиотека кодирования                   : libebml v1.3.1 + libmatroska v1.4.2

Видео
Идентификатор                            : 1
Формат                                   : AVC
Формат/Информация                        : Advanced Video Codec
Профиль формата                          : High@L4.1
Параметр CABAC формата                   : Да
Параметр ReFrames формата                : 9 кадров
Идентификатор кодека                     : V_MPEG4/ISO/AVC
Продолжительность                        : 50 м. 0 с.
Битрейт                                  : 1479 Кбит/сек
Ширина                                   : 720 пикселей
Высота                                   : 304 пикселя
Соотношение сторон                       : 2,35:1
Режим частоты кадров                     : Постоянный
Частота кадров                           : 25,000 кадров/сек
Цветовое пространство                    : YUV
Субдискретизация насыщенности            : 4:2:0
Битовая глубина                          : 8 бит
Тип развёртки                            : Прогрессивная
Бит/(Пиксели*Кадры)                      : 0.270
Размер потока                            : 518 Мбайт (87%)
Библиотека кодирования                   : x264 core 146 r2538 121396c
Настройки программы                      : cabac=1 / ref=9 / deblock=1:-2:-1 / analyse=0x3:0x113 / me=umh / subme=9 / psy=1 / psy_rd=1.00:0.15 / mixed_ref=1 / me_range=32 / chroma_me=1 / trellis=2 / 8x8dct=1 / cqm=0 / deadzone=21,11 / fast_pskip=0 / chroma_qp_offset=-3 / threads=18 / lookahead_threads=2 / sliced_threads=0 / nr=0 / decimate=1 / interlaced=0 / bluray_compat=0 / constrained_intra=0 / bframes=9 / b_pyramid=2 / b_adapt=2 / b_bias=0 / direct=3 / weightb=1 / open_gop=0 / weightp=2 / keyint=250 / keyint_min=25 / scenecut=40 / intra_refresh=0 / rc_lookahead=40 / rc=2pass / mbtree=0 / bitrate=1479 / ratetol=1.0 / qcomp=0.60 / qpmin=0 / qpmax=69 / qpstep=4 / cplxblur=20.0 / qblur=0.5 / vbv_maxrate=14000 / vbv_bufsize=14000 / nal_hrd=none / filler=0 / ip_ratio=1.40 / pb_ratio=1.30 / aq=2:1.00
Default                                  : Да
Forced                                   : Нет
Цветовой диапазон                        : Limited
Основные цвета                           : BT.709
Характеристики трансфера                 : BT.709
Коэффициенты матрицы                     : BT.709

Аудио
Идентификатор                            : 2
Формат                                   : AC-3
Формат/Информация                        : Audio Coding 3
Расширение режима                        : CM (complete main)
Параметр Endianness формата              : Big
Идентификатор кодека                     : A_AC3
Продолжительность                        : 50 м. 0 с.
Вид битрейта                             : Постоянный
Битрейт                                  : 192 Кбит/сек
Каналы                                   : 2 канала
Расположение каналов                     : Front: L R
Частота                                  : 48,0 КГц
Частота кадров                           : 31,250 кадров/сек (1536 spf)
Битовая глубина                          : 16 бит
Метод сжатия                             : С потерями
Размер потока                            : 68,7 Мбайт (11%)
Default                                  : Да
Forced                                   : Нет

Общее
Уникальный идентификатор                 : 187829454144495782019603358631454679452 (0x8D4EA31393D8D7FCBE03407A4C31A19C)
Полное имя                               : D:Pjanaja firma.WEB-DLRip.(AVC).GeneralFilm2.Pjanaja firma.WEB-DLRip.(AVC).GeneralFilm.mkv
Формат                                   : Matroska
Версия формата                           : Version 2
Размер файла                             : 598 Мбайт
Продолжительность                        : 47 м. 32 с.
Общий поток                              : 1759 Кбит/сек
Дата кодирования                         : UTC 2019-06-24 23:30:58
Программа кодирования                    : mkvmerge v7.8.0 ('River Man') 32bit built on Apr  3 2015 12:11:22
Библиотека кодирования                   : libebml v1.3.1 + libmatroska v1.4.2

Видео
Идентификатор                            : 1
Формат                                   : AVC
Формат/Информация                        : Advanced Video Codec
Профиль формата                          : High@L4.1
Параметр CABAC формата                   : Да
Параметр ReFrames формата                : 9 кадров
Идентификатор кодека                     : V_MPEG4/ISO/AVC
Продолжительность                        : 47 м. 32 с.
Битрейт                                  : 1566 Кбит/сек
Ширина                                   : 720 пикселей
Высота                                   : 304 пикселя
Соотношение сторон                       : 2,35:1
Режим частоты кадров                     : Постоянный
Частота кадров                           : 25,000 кадров/сек
Цветовое пространство                    : YUV
Субдискретизация насыщенности            : 4:2:0
Битовая глубина                          : 8 бит
Тип развёртки                            : Прогрессивная
Бит/(Пиксели*Кадры)                      : 0.286
Размер потока                            : 521 Мбайт (87%)
Библиотека кодирования                   : x264 core 146 r2538 121396c
Настройки программы                      : cabac=1 / ref=9 / deblock=1:-2:-1 / analyse=0x3:0x113 / me=umh / subme=9 / psy=1 / psy_rd=1.00:0.15 / mixed_ref=1 / me_range=32 / chroma_me=1 / trellis=2 / 8x8dct=1 / cqm=0 / deadzone=21,11 / fast_pskip=0 / chroma_qp_offset=-3 / threads=18 / lookahead_threads=2 / sliced_threads=0 / nr=0 / decimate=1 / interlaced=0 / bluray_compat=0 / constrained_intra=0 / bframes=9 / b_pyramid=2 / b_adapt=2 / b_bias=0 / direct=3 / weightb=1 / open_gop=0 / weightp=2 / keyint=250 / keyint_min=25 / scenecut=40 / intra_refresh=0 / rc_lookahead=40 / rc=2pass / mbtree=0 / bitrate=1566 / ratetol=1.0 / qcomp=0.60 / qpmin=0 / qpmax=69 / qpstep=4 / cplxblur=20.0 / qblur=0.5 / vbv_maxrate=14000 / vbv_bufsize=14000 / nal_hrd=none / filler=0 / ip_ratio=1.40 / pb_ratio=1.30 / aq=2:1.00
Default                                  : Да
Forced                                   : Нет
Цветовой диапазон                        : Limited
Основные цвета                           : BT.709
Характеристики трансфера                 : BT.709
Коэффициенты матрицы                     : BT.709

Аудио
Идентификатор                            : 2
Формат                                   : AC-3
Формат/Информация                        : Audio Coding 3
Расширение режима                        : CM (complete main)
Параметр Endianness формата              : Big
Идентификатор кодека                     : A_AC3
Продолжительность                        : 47 м. 32 с.
Вид битрейта                             : Постоянный
Битрейт                                  : 192 Кбит/сек
Каналы                                   : 2 канала
Расположение каналов                     : Front: L R
Частота                                  : 48,0 КГц
Частота кадров                           : 31,250 кадров/сек (1536 spf)
Битовая глубина                          : 16 бит
Метод сжатия                             : С потерями
Размер потока                            : 65,3 Мбайт (11%)
Default                                  : Да
Forced                                   : Нет




Скриншоты:
[+] Всего файлов в раздаче - 4:
01.Pjanaja firma.WEB-DLRip.(AVC).GeneralFilm.mkv598.43 MB
02.Pjanaja firma.WEB-DLRip.(AVC).GeneralFilm.mkv598.35 MB
03.Pjanaja firma.WEB-DLRip.(AVC).GeneralFilm.mkv598.40 MB
04.Pjanaja firma.WEB-DLRip.(AVC).GeneralFilm.mkv598.00 MB

Похожие раздачи по запросу - пьяная:
2019-06-25 U Пьяная фирма [01-04 из 04] (2016) WEB-DL 1080p от ExKinoRay 7.23 GB ↑ 91 ↓ 63
2017-11-01 U MOLLY - Пьяная [клип] (2017) WEBRip 2160p | 4K 343.96 MB ↑ 245 ↓ 30

Отзывы
Зарегистрируйтесь чтобы добавить комментарий.
Обратная связь
Copyleft ©