↑↓Torrent.by
Поиск
Логин: Регистрация
Пароль: Восстановить пароль
Загрузка...

Большое путешествие (2019) WEB-DL 1080p | iTunes

Скачать bolshoe-puteshestvie-2019-web-dl-1080p-itunes.torrent
U Магнитная ссылка Размер: 2.77 GB Раздают: 254 Качают: 93 Добавлен: 2019-06-26 10:44:41
Большое путешествие (2019) WEB-DL 1080p | iTunes

Название: Большое путешествие
Год выпуска: 2019
Жанр:  Мультфильм, комедия, приключения, семейный
Режиссер: Василий Ровенский, Наталья Нилова
В ролях: Дмитрий Назаров, Максим Галкин, Филипп Киркоров, Алексей Воробьёв, Татьяна Навка, Диомид Виноградов

О фильме: Однажды бестолковый аист из центра доставки детей перепутал адреса и вместо того, чтобы доставить малыша в семью панд, приносит его медведю по имени Мик-Мик. Мик-Мик во всём любит порядок и решает доставить малыша панду его родителям в южную часть Китая. В путешествие с ним увязывается непутёвый сосед заяц Оскар. По дороге они встречают хвастливого пеликана Дюка, трусливого волка Януса и романтичного тигра Амура.

Выпущено: Россия, США, Licensing Brands
Продолжительность: 01:20:21
Язык: Русский | iTunes

Файл
Качество: WEB-DL 1080p
Контейнер: MKV
Видео: MPEG-4 AVC, 1920x804, 4451 kbps, 25.000 fps
Аудио: Russian: AC3, 48.0 KHz, 6 ch, 384 kbps - iTunes
Субтитры: Нет


[+] MediaInfo
Общее
Уникальный идентификатор                 : 254223818142543242511661837893235420506 (0xBF41B9F4F04E6DFBADC46B9DF00CAD5A)
Полное имя                               : Bolishoe.puteshestvie.2019.WEB-DL.1080p.mkv
Формат                                   : Matroska
Версия формата                           : Version 2
Размер файла                             : 2,77 Гбайт
Продолжительность                        : 1 ч. 20 м.
Общий поток                              : 4933 Кбит/сек
Дата кодирования                         : UTC 2019-06-26 00:16:39
Программа кодирования                    : mkvmerge v5.8.0 ('No Sleep / Pillow') built on Sep  2 2012 15:37:04
Библиотека кодирования                   : libebml v1.2.3 + libmatroska v1.3.0

Видео
Идентификатор                            : 1
Формат                                   : AVC
Формат/Информация                        : Advanced Video Codec
Профиль формата                          : High@L4
Параметр CABAC формата                   : Да
Параметр RefFrames формата               : 5 кадров
Параметр GOP формата                     : N=1
Идентификатор кодека                     : V_MPEG4/ISO/AVC
Продолжительность                        : 1 ч. 20 м.
Битрейт                                  : 4451 Кбит/сек
Ширина                                   : 1920 пикселей
Высота                                   : 804 пикселя
Соотношение сторон                       : 2,40:1
Режим частоты кадров                     : Постоянный
Частота кадров                           : 25,000 кадров/сек
Цветовое пространство                    : YUV
Субдискретизация насыщенности            : 4:2:0
Битовая глубина                          : 8 бит
Тип развёртки                            : Прогрессивная
Бит/(Пиксели*Кадры)                      : 0.115
Размер потока                            : 2,50 Гбайт (90%)
Заголовок                                : Bolishoe.puteshestvie.2019.WEB-DL.1080p
Язык                                     : English
Default                                  : Да
Forced                                   : Нет
Цветовой диапазон                        : Limited
Основные цвета                           : BT.709
Характеристики трансфера                 : BT.709
Коэффициенты матрицы                     : BT.709

Аудио
Идентификатор                            : 2
Формат                                   : AC-3
Формат/Информация                        : Audio Coding 3
Параметр Endianness формата              : Big
Идентификатор кодека                     : A_AC3
Продолжительность                        : 1 ч. 20 м.
Вид битрейта                             : Постоянный
Битрейт                                  : 384 Кбит/сек
Каналы                                   : 6 каналов
Расположение каналов                     : Front: L C R, Side: L R, LFE
Частота                                  : 48,0 КГц
Частота кадров                           : 31,250 кадров/сек (1536 SPF)
Битовая глубина                          : 16 бит
Метод сжатия                             : С потерями
Размер потока                            : 221 Мбайт (8%)
Заголовок                                : iTunes
Язык                                     : Russian
Default                                  : Да
Forced                                   : Нет

Меню
00:00:00.000                             : en:Глава 1
00:04:13.920                             : en:Глава 2
00:11:27.920                             : en:Глава 3
00:19:19.800                             : en:Глава 4
00:24:41.200                             : en:Глава 5
00:29:27.040                             : en:Глава 6
00:38:44.480                             : en:Глава 7
00:45:08.760                             : en:Глава 8
00:49:43.680                             : en:Глава 9
00:56:14.920                             : en:Глава 10
01:02:21.320                             : en:Глава 11
01:08:59.760                             : en:Глава 12
01:13:23.840                             : en:Глава 13



Скриншоты:
[+] Всего файлов в раздаче - 1:
Bolishoe.puteshestvie.2019.WEB-DL.1080p.mkv2.77 GB

Показать еще раздачи по запросу большое:
2019-06-27 U Большое путешествие (2019) WEB-DLRip от GeneralFilm | iTunes 745.14 MB ↑ 149 ↓ 20
2019-06-27 U Большое путешествие (2019) WEB-DLRip | iTunes 1.46 GB ↑ 155 ↓ 43
2019-06-27 U Большое путешествие (2019) WEB-DLRip-AVC | iTunes 743.34 MB ↑ 85 ↓ 19
2019-06-26 U Большое путешествие (2019) WEB-DLRip-AVC от ExKinoRay | iTunes 1.72 GB ↑ 94 ↓ 38
2018-03-03 U Нил Деграсс Тайсон, Дж. Ричард Готт, Майкл А. Стросс - Большое космическое путешествие (2018) FB2 15.35 MB ↑ 434 ↓ 10
2017-01-24 U Игра на понижение / Большое сокращение / The Big Short (2015) BDRip от HQ-ViDEO | Лицензия 2К2.18 GB ↑ 349 ↓ 32
2016-06-19 U Большое путешествие Пи-Ви / Pee-Wee's big holiday (2016) WEB-DLRip От Cmert | L1 1К1.34 GB ↑ 358 ↓ 143

Отзывы
Зарегистрируйтесь чтобы добавить комментарий.
Обратная связь
Copyleft ©