↑↓Torrent.by
Поиск
Логин: Регистрация
Пароль: Восстановить пароль
Загрузка...

Большое путешествие (2019) WEB-DLRip-AVC от ExKinoRay | iTunes

Скачать bolshoe-puteshestvie-2019-web-dlrip-avc-ot-exkinoray-itunes.torrent
U Магнитная ссылка Размер: 1.72 GB Раздают: 99 Качают: 39 Добавлен: 2019-06-26 10:47:32
Большое путешествие (2019) WEB-DLRip-AVC от ExKinoRay | iTunes

Название: Большое путешествие
Год выпуска: 2019
Жанр:  Мультфильм, комедия, приключения, семейный
Режиссер: Василий Ровенский, Наталья Нилова
В ролях: Дмитрий Назаров, Максим Галкин, Филипп Киркоров, Алексей Воробьёв, Татьяна Навка, Диомид Виноградов

О фильме: Однажды бестолковый аист из центра доставки детей перепутал адреса и вместо того, чтобы доставить малыша в семью панд, приносит его медведю по имени Мик-Мик. Мик-Мик во всём любит порядок и решает доставить малыша панду его родителям в южную часть Китая. В путешествие с ним увязывается непутёвый сосед заяц Оскар. По дороге они встречают хвастливого пеликана Дюка, трусливого волка Януса и романтичного тигра Амура.

Выпущено: Россия, США, Licensing Brands
Продолжительность: 01:20:20
Язык: Русский | iTunes

Формат: MKV
Качество: WEB-DLRip-AVC
Видео: MPEG-4 AVC, 1024x428 (2.40:1), 25.000 fps, 2684 Kbps, 0.245 bit/pixel
Аудио #01: 48 kHz, AC3, 5.1, 384 Kbps | RUS |

Релиз:

Автор релиза:


[+] MediaInfo
General
Unique ID                                : 223208416616675410514451133518984925791 (0xA7EC60995CE4F795B268EFFDFF66525F)
Complete name                            : D:Bolishoe.puteshestvie.2019.WEB-DL.AVC.ExKinoRay.mkv
Format                                   : Matroska
Format version                           : Version 2
File size                                : 1.72 GiB
Duration                                 : 1 h 20 min
Overall bit rate                         : 3 069 kb/s
Movie name                               : Большое путешествие (2019) from ExKinoRay
Encoded date                             : UTC 2019-06-26 04:45:08
Writing application                      : mkvmerge v5.6.0 ('Kenya Kane') built on May 27 2012 16:44:04
Writing library                          : libebml v1.2.3 + libmatroska v1.3.0

Video
ID                                       : 1
Format                                   : AVC
Format/Info                              : Advanced Video Codec
Format profile                           : High@L4.1
Format settings, CABAC                   : Yes
Format settings, ReFrames                : 11 frames
Codec ID                                 : V_MPEG4/ISO/AVC
Duration                                 : 1 h 20 min
Bit rate                                 : 2 684 kb/s
Width                                    : 1 024 pixels
Height                                   : 428 pixels
Display aspect ratio                     : 2.40:1
Frame rate mode                          : Constant
Frame rate                               : 25.000 FPS
Color space                              : YUV
Chroma subsampling                       : 4:2:0
Bit depth                                : 8 bits
Scan type                                : Progressive
Bits/(Pixel*Frame)                       : 0.245
Stream size                              : 1.47 GiB (85%)
Title                                    : Enigma
Writing library                          : x264 core 152 r2851 ba24899
Encoding settings                        : cabac=1 / ref=11 / deblock=1:-2:-2 / analyse=0x3:0x113 / me=umh / subme=10 / psy=1 / psy_rd=1.05:0.10 / mixed_ref=1 / me_range=32 / chroma_me=1 / trellis=2 / 8x8dct=1 / cqm=0 / deadzone=21,11 / fast_pskip=0 / chroma_qp_offset=-3 / threads=12 / lookahead_threads=3 / sliced_threads=0 / nr=0 / decimate=0 / interlaced=0 / bluray_compat=0 / constrained_intra=0 / bframes=10 / b_pyramid=2 / b_adapt=2 / b_bias=0 / direct=3 / weightb=1 / open_gop=0 / weightp=2 / keyint=240 / keyint_min=24 / scenecut=40 / intra_refresh=0 / rc=2pass / mbtree=0 / bitrate=2684 / ratetol=1.0 / qcomp=0.65 / qpmin=0 / qpmax=51 / qpstep=4 / cplxblur=20.0 / qblur=0.5 / ip_ratio=1.30 / pb_ratio=1.20 / aq=1:1.00
Language                                 : English
Default                                  : Yes
Forced                                   : No
Color range                              : Limited
Color primaries                          : BT.709
Transfer characteristics                 : BT.709
Matrix coefficients                      : BT.709

Audio
ID                                       : 2
Format                                   : AC-3
Format/Info                              : Audio Coding 3
Mode extension                           : CM (complete main)
Format settings, Endianness              : Big
Codec ID                                 : A_AC3
Duration                                 : 1 h 20 min
Bit rate mode                            : Constant
Bit rate                                 : 384 kb/s
Channel(s)                               : 6 channels
Channel positions                        : Front: L C R, Side: L R, LFE
Sampling rate                            : 48.0 kHz
Frame rate                               : 31.250 FPS (1536 spf)
Compression mode                         : Lossy
Stream size                              : 221 MiB (13%)
Language                                 : Russian
Default                                  : Yes
Forced                                   : No

Menu
00:00:00.000                             : en:Глава 1
00:04:13.920                             : en:Глава 2
00:11:27.920                             : en:Глава 3
00:19:19.800                             : en:Глава 4
00:24:41.200                             : en:Глава 5
00:29:27.040                             : en:Глава 6
00:38:44.480                             : en:Глава 7
00:45:08.760                             : en:Глава 8
00:49:43.680                             : en:Глава 9
00:56:14.920                             : en:Глава 10
01:02:21.320                             : en:Глава 11
01:08:59.760                             : en:Глава 12
01:13:23.840                             : en:Глава 13




Скриншоты:
[+] Всего файлов в раздаче - 1:
Bolishoe.puteshestvie.2019.WEB-DL.AVC.ExKinoRay.mkv1.72 GB

Похожие раздачи по запросу - большое:
2019-06-27 U Большое путешествие (2019) WEB-DLRip от GeneralFilm | iTunes 745.14 MB ↑ 243 ↓ 23
2019-06-27 U Большое путешествие (2019) WEB-DLRip | iTunes 1.46 GB ↑ 236 ↓ 50
2019-06-26 U Большое путешествие (2019) WEB-DL 1080p | iTunes 2.77 GB ↑ 410 ↓ 99

Отзывы
Зарегистрируйтесь чтобы добавить комментарий.
Обратная связь
Copyleft ©