↑↓Torrent.by
Поиск
Логин: Регистрация
Пароль: Восстановить пароль
Загрузка...

После / After (2019) WEB-DLRip | iTunes

Скачать posle-after-2019-web-dlrip-itunes.torrent
U Магнитная ссылка Размер: 1.46 GB Раздают: 176 Качают: 39 Добавлен: 2019-06-26 14:01:56
После / After (2019) WEB-DLRip | iTunes

После / After

Страна: США
Производство: Diamond Film Productions, Offspring Entertainment, Voltage Pictures
Год выпуска: 2019
Жанр:  драма, мелодрама
Продолжительность: 01:40:43

Режиссер: Дженни Гейдж
В ролях: Сэльма Блэр, Дженнифер Билз, Джозефина Лэнгфорд, Хиро Файнс-Тиффин, Питер Галлахер, Медоу Уильямс, Дилан Арнольд, Сэмюэл Ларсен

Описание: Случайная встреча перевернула их привычный мир. Она — прилежная студентка и образцовая дочь, а он — притягательный бунтарь с непростым прошлым. Живя в параллельных вселенных, они бы вряд ли даже взглянули друг на друга. Однако этому знакомству суждено разделить жизнь влюбленных на до и после...

Перевод: Профессиональный (полное дублирование) | iTunes
Субтитры: нет

Качество: WEB-DLRip
Формат: AVI
Видео кодек: XviD
Аудио кодек: АС3
Видео: 720x304 (2.35:1), 25.000 fps, XviD build 73 ~1 679 kbps avg
Аудио: 48.0 kHz, AC3 Dolby Digital, 3/2 (L,C,R,l,r) + LFE ch, ~384 kbps

Дата премьеры (мир): 11 апреля 2019
Дата премьеры (РФ): 18 апреля 2019, «Вольга»

Релиз от: порошков


[+] Media Info
General
Формат                                   : AVI
Формат/Информация                        : Audio Video Interleave
Размер файла                             : 1,46 Гбайт
Продолжительность                        : 1 ч. 40 м.
Общий поток                              : 2073 Кбит/сек
Название фильма                          : После_2019_WEB-DLRip
Программа кодирования                    : VirtualDubMod 1.5.10.3 | (build 2550/release)
Авторское право                          : порошков

Видео
Идентификатор                            : 0
Формат                                   : MPEG-4 Visual
Профиль формата                          : Advanced Simple@L5
Настройки формата                        : BVOP1 / Custom Matrix
Параметр BVOP формата                    : 1
Параметр QPel формата                    : Нет
Параметр GMC формата                     : Без точки перехода
Параметр матрицы формата                 : Выборочная
Идентификатор кодека                     : XVID
Идентификатор кодека/Подсказка           : XviD
Продолжительность                        : 1 ч. 40 м.
Битрейт                                  : 1679 Кбит/сек
Ширина                                   : 720 пикселей
Высота                                   : 304 пикселя
Соотношение сторон                       : 2,35:1
Частота кадров                           : 25,000 кадров/сек
Цветовое пространство                    : YUV
Субдискретизация насыщенности            : 4:2:0
Битовая глубина                          : 8 бит
Тип развёртки                            : Прогрессивная
Метод сжатия                             : С потерями
Бит/(Пиксели*Кадры)                      : 0.307
Размер потока                            : 1,18 Гбайт (81%)
Библиотека кодирования                   : XviD 73

Аудио
Идентификатор                            : 1
Формат                                   : AC-3
Формат/Информация                        : Audio Coding 3
Коммерческое название                    : Dolby Digital
Идентификатор кодека                     : 2000
Продолжительность                        : 1 ч. 40 м.
Вид битрейта                             : Постоянный
Битрейт                                  : 384 Кбит/сек
Каналы                                   : 6 каналов
ChannelLayout                            : L R C LFE Ls Rs
Частота                                  : 48,0 КГц
Частота кадров                           : 31,250 кадров/сек (1536 SPF)
Битовая глубина                          : 16 бит
Метод сжатия                             : С потерями
Размер потока                            : 277 Мбайт (19%)
Выравнивание                             : Разделение по промежуткам
Продолжительность промежутка             : 40  мс. (1,00 видеокадр)
Время предзагрузки промежутка            : 500  мс.



Скриншоты:
[+] Всего файлов в раздаче - 1:
После_2019_WEB-DLRip.avi1.46 GB

Показать еще раздачи по запросу после:
2019-08-13 U Шлосс Ева - После Аушвица (2019) FB2 1,005.38 kB ↑ 30 ↓ 1
2019-08-01 U После прочтения сжечь / Burn After Reading (2008) BDRip-AVC | D 1.46 GB ↑ 68 ↓ 10
2019-07-05 U После / After (2019) BDRip 720p от селезень | iTunes 4.83 GB ↑ 64 ↓ 20
2019-07-05 U После / After (2019) BDRip от MegaPeer | iTunes 1.41 GB ↑ 54 ↓ 16
2019-07-04 U Мир после мира / Afterworld [01-13 из 13] (2007) SATRip | D 2.32 GB ↑ 108 ↓ 37
2019-07-03 U После / After (2019) BDRip от MegaPeer | iTunes 1.41 GB ↑ 151 ↓ 63
2019-06-26 U После / After (2019) WEB-DLRip от MegaPeer | iTunes 1.46 GB ↑ 182 ↓ 65

Отзывы
Зарегистрируйтесь чтобы добавить комментарий.
Обратная связь
Copyleft ©