↑↓Torrent.by
Поиск
Логин: Регистрация
Пароль: Восстановить пароль
Загрузка...

Шазам! / Shazam! (2019) BDRemux 1080p от селезень | Лицензия

Скачать shazam-2019-bdremux-1080p-ot-selezen-licenziya.torrent
U Магнитная ссылка Размер: 27.55 GB Раздают: 231 Качают: 205 Добавлен: 2019-06-27 10:01:56
Шазам! / Shazam! (2019) BDRemux 1080p от селезень | Лицензия

Название: Шазам!
Оригинальное название: Shazam!
Год выхода: 2019
Жанр: Фэнтези, боевик, комедия, приключения
Режиссер: Дэвид Ф. Сандберг
В ролях: Закари Ливай, Эшер Энджел, Мишель Борт, Джимон Хонсу, Грэйс Фултон, Марк Стронг, Джек Дилан Грейзер, Марта Миланс, Мэган Гуд, Адам Броди, Фэйти Херман, Йен Чен, Росс Батлер, Йован Арман, Д.Дж. Котрона, Купер Эндрюс, Итан Пуджиотто, Джон Гловер, Кэролайн Палмер, Эмили Никсон, Лотта Лостен, Ивэн Марш, Миша Расайя

О фильме: В каждом из нас живет супергерой, нужна лишь толика магии, чтобы он проявил себя. Билли Бэтсон должен прокричать всего лишь одно слово - ШАЗАМ! - чтобы из сообразительного четырнадцатилетнего мальчишки превратиться во вполне себе взрослого супергероя Шазама, а все благодаря древнему волшебнику. В душе он остается ребенком, пусть и во взрослом могучем теле, поэтому поступает так, как поступил бы любой подросток, получивший сверхспособности, - оттягивается на полную катушку в этой подросшей версии себя самого! А умеет ли он летать? А есть ли у него рентгеновское зрение? Может ли он стрелять молниями из рук? А может ли пропустить контрольную по обществознанию? Шазам проверяет границы своих возможностей с бесшабашностью расшалившегося ребенка.

Страна: США
Студия: 7 Bucks Productions, DC Comics, DC Entertainment
Продолжительность: 02:11:43
Перевод: Дублированный | Лицензия

Качество: BDRemux 1080p
Видео: MPEG-4 AVC, 1920x1080, 25.3 Mbit/s, 23.976 fps
Звук:
Аудио #01: 48 kHz, AC3, 5.1, 448 Kbps | Лицензия | RUS |
Аудио #02: 48 kHz, TrueHD, 7.1, 3645 Kbps | Оригинал |  ENG |
Аудио #03: 48 kHz, AC3, 5.1, 448 Kbps | Оригинал |  ENG |
Субтитры: Русские (Forced, full), английские

Релиз:


[+] MI
General
Unique ID                   : 242871312711531446904225615968945259670 (0xB6B7503990BA84E1B9E5C15983834496)
Complete name               : D:Video111Shazam.2019.BDREMUX.1080p.seleZen.mkv
Format                      : Matroska
Format version              : Version 4
File size                   : 27.5 GiB
Duration                    : 2 h 11 min
Overall bit rate mode       : Variable
Overall bit rate            : 29.9 Mb/s
Movie name                  : Shazam! 2019 from селезень
Encoded date                : UTC 2019-06-26 16:39:00
Writing application         : mkvmerge v35.0.0 ('All The Love In The World') 64-bit
Writing library             : libebml v1.3.9 + libmatroska v1.5.2

Video
ID                          : 1
Format                      : AVC
Format/Info                 : Advanced Video Codec
Format profile              : High@L4.1
Format settings             : CABAC / 4 Ref Frames
Format settings, CABAC      : Yes
Format settings, Reference  : 4 frames
Codec ID                    : V_MPEG4/ISO/AVC
Duration                    : 2 h 11 min
Bit rate mode               : Variable
Bit rate                    : 25.3 Mb/s
Maximum bit rate            : 30.0 Mb/s
Width                       : 1 920 pixels
Height                      : 1 080 pixels
Display aspect ratio        : 16:9
Frame rate mode             : Constant
Frame rate                  : 23.976 (24000/1001) FPS
Color space                 : YUV
Chroma subsampling          : 4:2:0
Bit depth                   : 8 bits
Scan type                   : Progressive
Bits/(Pixel*Frame)          : 0.509
Stream size                 : 23.3 GiB (85%)
Language                    : English
Default                     : Yes
Forced                      : No

Audio #1
ID                          : 2
Format                      : AC-3
Format/Info                 : Audio Coding 3
Commercial name             : Dolby Digital
Codec ID                    : A_AC3
Duration                    : 2 h 11 min
Bit rate mode               : Constant
Bit rate                    : 448 kb/s
Channel(s)                  : 6 channels
Channel layout              : L R C LFE Ls Rs
Sampling rate               : 48.0 kHz
Frame rate                  : 31.250 FPS (1536 SPF)
Bit depth                   : 16 bits
Compression mode            : Lossy
Stream size                 : 422 MiB (1%)
Title                       : Dub [License]
Language                    : Russian
Service kind                : Complete Main
Default                     : Yes
Forced                      : Yes

Audio #2
ID                          : 3
Format                      : MLP FBA 16-ch
Format/Info                 : Meridian Lossless Packing FBA with 16-channel presentation
Commercial name             : Dolby TrueHD with Dolby Atmos
Codec ID                    : A_TRUEHD
Duration                    : 2 h 11 min
Bit rate mode               : Variable
Bit rate                    : 3 645 kb/s
Maximum bit rate            : 5 931 kb/s
Channel(s)                  : 8 channels
Channel layout              : L R C LFE Ls Rs Lb Rb
Sampling rate               : 48.0 kHz
Frame rate                  : 1 200.000 FPS (40 SPF)
Compression mode            : Lossless
Stream size                 : 3.35 GiB (12%)
Title                       : Original
Language                    : English
Default                     : No
Forced                      : No
Number of dynamic objects   : 15
Bed channel count           : 1 channel
Bed channel configuration   : LFE

Audio #3
ID                          : 4
Format                      : AC-3
Format/Info                 : Audio Coding 3
Commercial name             : Dolby Digital
Codec ID                    : A_AC3
Duration                    : 2 h 11 min
Bit rate mode               : Constant
Bit rate                    : 448 kb/s
Channel(s)                  : 6 channels
Channel layout              : L R C LFE Ls Rs
Sampling rate               : 48.0 kHz
Frame rate                  : 31.250 FPS (1536 SPF)
Bit depth                   : 16 bits
Compression mode            : Lossy
Stream size                 : 422 MiB (1%)
Title                       : Original
Language                    : English
Service kind                : Complete Main
Default                     : No
Forced                      : No

Text #1
ID                          : 5
Format                      : UTF-8
Codec ID                    : S_TEXT/UTF8
Codec ID/Info               : UTF-8 Plain Text
Duration                    : 2 h 10 min
Bit rate                    : 2 b/s
Count of elements           : 67
Stream size                 : 2.00 KiB (0%)
Title                       : Forced
Language                    : Russian
Default                     : Yes
Forced                      : Yes

Text #2
ID                          : 6
Format                      : UTF-8
Codec ID                    : S_TEXT/UTF8
Codec ID/Info               : UTF-8 Plain Text
Duration                    : 2 h 10 min
Bit rate                    : 65 b/s
Count of elements           : 1756
Stream size                 : 62.9 KiB (0%)
Title                       : Full
Language                    : Russian
Default                     : No
Forced                      : No

Text #3
ID                          : 7
Format                      : UTF-8
Codec ID                    : S_TEXT/UTF8
Codec ID/Info               : UTF-8 Plain Text
Duration                    : 2 h 10 min
Bit rate                    : 52 b/s
Count of elements           : 1728
Stream size                 : 49.9 KiB (0%)
Title                       : Full
Language                    : English
Default                     : No
Forced                      : No

Text #4
ID                          : 8
Format                      : UTF-8
Codec ID                    : S_TEXT/UTF8
Codec ID/Info               : UTF-8 Plain Text
Duration                    : 2 h 10 min
Bit rate                    : 64 b/s
Count of elements           : 2182
Stream size                 : 61.7 KiB (0%)
Title                       : SDH
Language                    : English
Default                     : No
Forced                      : No

Text #5
ID                          : 9
Format                      : UTF-8
Codec ID                    : S_TEXT/UTF8
Codec ID/Info               : UTF-8 Plain Text
Duration                    : 2 h 11 min
Bit rate                    : 94 b/s
Count of elements           : 2155
Stream size                 : 90.7 KiB (0%)
Title                       : SDH Colored
Language                    : English
Default                     : No
Forced                      : No

Menu
00:00:00.000                : en:Chapter 01
00:08:18.790                : en:Chapter 02
00:15:11.285                : en:Chapter 03
00:25:22.396                : en:Chapter 04
00:31:57.624                : en:Chapter 05
00:39:00.255                : en:Chapter 06
00:50:07.713                : en:Chapter 07
01:01:28.810                : en:Chapter 08
01:08:51.502                : en:Chapter 09
01:16:40.471                : en:Chapter 10
01:24:29.356                : en:Chapter 11
01:34:00.677                : en:Chapter 12
01:43:01.175                : en:Chapter 13
01:52:53.850                : en:Chapter 14
02:00:44.446                : en:Chapter 15



Скриншоты:
[+] Всего файлов в раздаче - 1:
Shazam.2019.BDREMUX.1080p.seleZen.mkv27.55 GB

Показать еще раздачи по запросу шазам:
2019-07-16 U Шазам! / Shazam! (2019) BDRip 1080p от Ash61 | 3D-Video | halfOU | Лицензия 14.06 GB ↑ 41 ↓ 25
2019-07-07 U Шазам! / Shazam! (2019) BDRip-HEVC 1080p | Лицензия 5.97 GB ↑ 174 ↓ 114
2019-07-07 U Шазам! / Shazam! (2018) BDRip от HQ-ViDEO | Лицензия 2.18 GB ↑ 234 ↓ 69
2019-07-03 U Шазам! / Shazam! (2019) BDRip 1080p от qqss44 & MegaPeer | Лицензия 7.75 GB ↑ 128 ↓ 49
2019-07-02 U Шазам! / Shazam! (2019) BDRip-HEVC 1080p | Лицензия 11.00 GB ↑ 112 ↓ 42
2019-06-29 U Шазам! / Shazam! (2019) BDRip от Twister & ExKinoRay | Лицензия 1.47 GB ↑ 174 ↓ 48
2019-06-29 U Шазам! / Shazam! (2019) BDRip от Twister & ExKinoRay | Лицензия 2.18 GB ↑ 365 ↓ 90

Отзывы
Зарегистрируйтесь чтобы добавить комментарий.
Обратная связь
Copyleft ©