↑↓Torrent.by
Поиск
Логин: Регистрация
Пароль: Восстановить пароль
Загрузка...

Ведьма [01-16 из 16] (2019) WEBRip-AVC от GeneralFilm

Скачать vedma-01-16-iz-2019-webrip-avc-ot-generalfilm.torrent
U Магнитная ссылка Размер: 9.38 GB Раздают: 28 Качают: 18 Добавлен: 2019-06-29 05:32:22
Ведьма [01-16 из 16] (2019) WEBRip-AVC от GeneralFilm

Год выпуска: 2019
Жанр:  Мелодрама
Выпущено: Россия, Pro-TV Production
Режиссер: Сергей Борчуков
В ролях: Анастасия Стежко, Илья Акинтьев, Глафира Тарханова, Дмитрий Лабуш, Елена Дробышева, Борис Смолкин, Андрей Барило, Валерий Афанасьев, Ольга Гришина, Мария Тарасова (II)

О фильме: Невероятные события происходят в глухой деревне. Один тревожный день меняет судьбы всех её жителей. Все началось с появления таинственной незнакомки. Кузнец Роман спасает тонущую в реке девушку. Девушка не помнит ничего о себе и своем прошлом. Кто она? Русалка, призрак, прекрасный ангел или может быть… ведьма? По деревне начинают распространяться слухи о том, что в доме Романа завелась нечистая сила.

Кодек: h.264
Качество: WEBRip-AVC
Видео: MPEG-4 AVC, ~ 1450 Кбит/с, 720х400, 25 кадр/с
Аудио: Русский (AC3, 2 ch, 192 Кбит/с)
Продолжительность: 16 x ~ 00:52:00
Перевод: Не требуется
Субтитры: нет

Релиз:


[+] MediaInfo

Общее
Уникальный идентификатор                 : 205300882191603226120281285603358047092 (0x9A7382FC4B1F53CE92F5826CE7B67B74)
Полное имя                               : D:Vedma.WEBRip.(AVC).GeneralFilm1.Vedma.WEBRip.(AVC).GeneralFilm.mkv
Формат                                   : Matroska
Версия формата                           : Version 2
Размер файла                             : 600 Мбайт
Продолжительность                        : 51 м. 25 с.
Общий поток                              : 1632 Кбит/сек
Дата кодирования                         : UTC 2019-06-17 19:39:41
Программа кодирования                    : mkvmerge v7.8.0 ('River Man') 32bit built on Apr  3 2015 12:11:22
Библиотека кодирования                   : libebml v1.3.1 + libmatroska v1.4.2

Видео
Идентификатор                            : 1
Формат                                   : AVC
Формат/Информация                        : Advanced Video Codec
Профиль формата                          : High@L4.1
Параметр CABAC формата                   : Да
Параметр ReFrames формата                : 9 кадров
Идентификатор кодека                     : V_MPEG4/ISO/AVC
Продолжительность                        : 51 м. 25 с.
Битрейт                                  : 1439 Кбит/сек
Ширина                                   : 720 пикселей
Высота                                   : 400 пикселей
Соотношение сторон                       : 16:9
Режим частоты кадров                     : Постоянный
Частота кадров                           : 25,000 кадров/сек
Цветовое пространство                    : YUV
Субдискретизация насыщенности            : 4:2:0
Битовая глубина                          : 8 бит
Тип развёртки                            : Прогрессивная
Бит/(Пиксели*Кадры)                      : 0.200
Размер потока                            : 518 Мбайт (86%)
Библиотека кодирования                   : x264 core 146 r2538 121396c
Настройки программы                      : cabac=1 / ref=9 / deblock=1:-2:-1 / analyse=0x3:0x113 / me=umh / subme=9 / psy=1 / psy_rd=1.00:0.15 / mixed_ref=1 / me_range=32 / chroma_me=1 / trellis=2 / 8x8dct=1 / cqm=0 / deadzone=21,11 / fast_pskip=0 / chroma_qp_offset=-3 / threads=18 / lookahead_threads=3 / sliced_threads=0 / nr=0 / decimate=1 / interlaced=0 / bluray_compat=0 / constrained_intra=0 / bframes=9 / b_pyramid=2 / b_adapt=2 / b_bias=0 / direct=3 / weightb=1 / open_gop=0 / weightp=2 / keyint=250 / keyint_min=25 / scenecut=40 / intra_refresh=0 / rc_lookahead=40 / rc=2pass / mbtree=0 / bitrate=1439 / ratetol=1.0 / qcomp=0.60 / qpmin=0 / qpmax=69 / qpstep=4 / cplxblur=20.0 / qblur=0.5 / vbv_maxrate=14000 / vbv_bufsize=14000 / nal_hrd=none / filler=0 / ip_ratio=1.40 / pb_ratio=1.30 / aq=2:1.00
Default                                  : Да
Forced                                   : Нет
Цветовой диапазон                        : Limited
Основные цвета                           : BT.709
Характеристики трансфера                 : BT.709
Коэффициенты матрицы                     : BT.709

Аудио
Идентификатор                            : 2
Формат                                   : AC-3
Формат/Информация                        : Audio Coding 3
Расширение режима                        : CM (complete main)
Параметр Endianness формата              : Big
Идентификатор кодека                     : A_AC3
Продолжительность                        : 51 м. 25 с.
Вид битрейта                             : Постоянный
Битрейт                                  : 192 Кбит/сек
Каналы                                   : 2 канала
Расположение каналов                     : Front: L R
Частота                                  : 44,1 КГц
Частота кадров                           : 28,711 кадров/сек (1536 spf)
Битовая глубина                          : 16 бит
Метод сжатия                             : С потерями
Размер потока                            : 70,6 Мбайт (12%)
Default                                  : Да
Forced                                   : Нет




Скриншоты:
[+] Всего файлов в раздаче - 16:
01.Vedma.WEBRip.(AVC).GeneralFilm.mkv600.47 MB
02.Vedma.WEBRip.(AVC).GeneralFilm.mkv600.49 MB
03.Vedma.WEBRip.(AVC).GeneralFilm.mkv600.55 MB
04.Vedma.WEBRip.(AVC).GeneralFilm.mkv600.38 MB
05.Vedma.WEBRip.(AVC).GeneralFilm.mkv600.49 MB
06.Vedma.WEBRip.(AVC).GeneralFilm.mkv600.35 MB
07.Vedma.WEBRip.(AVC).GeneralFilm.mkv600.46 MB
08.Vedma.WEBRip.(AVC).GeneralFilm.mkv600.47 MB
09.Vedma.WEBRip.(AVC).GeneralFilm.mkv600.40 MB
10.Vedma.WEBRip.(AVC).GeneralFilm.mkv600.33 MB
11.Vedma.WEBRip.(AVC).GeneralFilm.mkv600.51 MB
12.Vedma.WEBRip.(AVC).GeneralFilm.mkv600.30 MB
13.Vedma.WEBRip.(AVC).GeneralFilm.mkv600.56 MB
14.Vedma.WEBRip.(AVC).GeneralFilm.mkv600.29 MB
15.Vedma.WEBRip.(AVC).GeneralFilm.mkv600.20 MB
16.Vedma.WEBRip.(AVC).GeneralFilm.mkv600.25 MB

Показать еще раздачи по запросу ведьма:
2019-06-29 U Ведьма [01-16 из 16] (2019) WEBRip от Files-x 10.21 GB ↑ 90 ↓ 54
2019-06-28 U Ведьма [01-16 из 16] (2019) SATRip 9.37 GB ↑ 71 ↓ 242
2019-06-27 U Ведьма [01-14 из 16] (2019) WEBRip от Files-x 8.97 GB ↑ 90 ↓ 118
2019-06-27 U Ведьма [01х01-16 из 16] (2019) SATRip-AVC 10.07 GB ↑ 10 ↓ 5
2019-06-27 U Ведьма [01-14 из 16] (2019) SATRip 8.20 GB ↑ 61 ↓ 138
2019-06-25 U Ведьма [01-10 из 16] (2019) SATRip 5.86 GB ↑ 63 ↓ 75
2019-06-21 U Ведьма [01-08 из 16] (2019) SATRip 4.69 GB ↑ 50 ↓ 62

Отзывы
Зарегистрируйтесь чтобы добавить комментарий.
Обратная связь
Copyleft ©